<?xml version="1.0" standalone="no"?>
<!DOCTYPE svg PUBLIC "-//W3C//DTD SVG 1.1//EN" "http://www.w3.org/Graphics/SVG/1.1/DTD/svg11.dtd" >
<svg xmlns="http://www.w3.org/2000/svg">
<metadata></metadata>
<defs>
<font id="frente_h1regular" horiz-adv-x="290" >
<font-face units-per-em="1000" ascent="800" descent="-200" />
<missing-glyph horiz-adv-x="230" />
<glyph horiz-adv-x="1000" />
<glyph horiz-adv-x="1000" />
<glyph unicode="&#xd;" horiz-adv-x="1000" />
<glyph unicode=" "  horiz-adv-x="230" />
<glyph unicode="&#x09;" horiz-adv-x="230" />
<glyph unicode="&#xa0;" horiz-adv-x="230" />
<glyph unicode="!" horiz-adv-x="182" d="M61 822q-6 15 12 22q16 4 20 -11q8 -46 8 -69q3 -81 1 -183q0 -71 -2 -215q0 -22 1 -33q2 -34 6.5 -102t6.5 -102q2 -17 0 -33q-2 -12 -7 -15t-23 -1q0 2 -0.5 4t-1 3t-0.5 2q1 56 -10 237q-2 35 -1 44q5 8 3.5 89.5t-1.5 89.5q1 32 -2 190q0 53 -10 83zM80 -39 q-2 29 24 29q25 1 28 -28v-4t-1 -5q-2 -9 -8 -15.5t-13 -5.5q-12 0 -21 8t-9 21z" />
<glyph unicode="&#x22;" horiz-adv-x="197" d="M45 843q0 4 0.5 6.5t2.5 4t3 2.5t4.5 1.5t5 0.5h6.5h7q6 -17 6 -18q-7 -34 -3 -112q0 -8 -1 -11q-5 -9 -17.5 -9t-12.5 12q0 39 1 58q0 11 -0.5 32.5t-1.5 32.5zM123 843q0 4 0.5 6.5t2.5 4t3 2.5t4.5 1.5t5 0.5h6.5h7q6 -17 6 -18q-7 -34 -3 -112q0 -8 -1 -11 q-5 -9 -17.5 -9t-12.5 12q0 39 1 58q0 11 -0.5 32.5t-1.5 32.5z" />
<glyph unicode="#" horiz-adv-x="480" d="M11 478q-2 6 0 9t8.5 4.5t10 1.5h12.5h5q29 -1 88 -1q3 0 11 0.5t13 0.5q-1 9 -2.5 27t-1.5 26q-3 14 -2 32.5t13 19.5q7 1 12 -4.5t6 -13.5q0 -38 1 -56q0 -9 2 -27q22 1 64.5 2.5t63.5 2.5q0 15 0.5 44.5t1.5 44.5q0 10 16 18q13 -7 16 -13t1 -21q-3 -25 -7 -75 q39 -6 100 6q16 3 20 0.5t9 -19.5q-10 -16 -30 -13q-5 1 -10.5 1t-12 -0.5t-10.5 -0.5q-11 0 -32 -2t-31 -2q-11 -19 -2 -112q16 0 43.5 -2.5t33.5 -2.5q3 0 9.5 -1t11.5 -1.5t9 -0.5q3 0 8.5 2.5t8.5 3.5q4 -5 12 -19q0 -7 -3 -11t-10 -7.5t-9 -5.5q-18 11 -58.5 15 t-57.5 -4q0 -4 2 -32t4 -43v-17q0 -18 3 -26q1 -3 0 -7t-3 -9t-3 -8q-15 -2 -18 4q-9 14 -8 20q5 21 1 74q-1 10 -5 47q-17 0 -59.5 -4.5t-67.5 -2.5q0 -7 -0.5 -22t0.5 -26.5t5 -22.5t-1.5 -18.5t-14.5 -7.5q-14 0 -14 66q0 21 -3.5 24.5t-22.5 1.5q-34 -3 -89 -11h-8 q-18 2 -18 20q1 5 7 10t13 6q19 1 57.5 2.5t57.5 1.5q1 0 7 2q5 70 -2 120q-4 3 -9 3.5t-11.5 -1.5t-8.5 -2q-63 -9 -106 -4q-12 1 -16 16zM187 468q9 -66 2 -120q12 -1 32.5 0t31.5 2t31 2.5t31 2.5v116q-19 6 -68 4.5t-60 -7.5z" />
<glyph unicode="$" horiz-adv-x="310" d="M45 123q-1 14 1 44q9 7 10 7q16 6 19 -5t1 -31q0 -46 5 -63q8 -25 37 -32q0 50 4 74q0 3 0.5 7t0.5 6q-2 43 3.5 123t4.5 115v80q-4 12 -14 34q-42 108 -59 162q-7 32 10 79q12 31 47 34l10 2q-1 1 -1 2q-2 6 -2 22q0 19 13 20.5t18 -14.5q2 -6 2 -13l1 -17q2 0 4 -0.5 t4 -0.5q33 -4 52.5 -38t13.5 -74q-2 -13 -12 -13q-9 -1 -13.5 5.5t-5.5 13t-1 18.5q0 41 -40 59q4 -61 2 -91q-1 -15 0 -44t1 -38q0 -12 -1 -35t-1 -34v-24q1 -3 2 -7.5t2 -6.5q12 -36 20 -62q1 -5 3 -14.5t4 -14.5q7 -16 27 -92q18 -78 14 -153q-3 -47 -39 -73 q-4 -4 -12.5 -9t-12.5 -8q-7 -6 -19 -10q0 -34 -1 -51q0 -17 -13.5 -16.5t-16.5 15.5v9q1 14 1 41q-7 2 -26 10q-3 1 -7.5 3.5t-7.5 3.5q-11 5 -18 14t-10 24t-3.5 26t-0.5 31zM93 636q5 -15 26 -71q8 -18 15 -38q0 26 -0.5 55t-1.5 64.5t-1 55.5l-1 28q-26 -6 -37 -34 t0 -60zM148 46q13 9 19.5 14t15.5 15t13 21q9 42 5 72q-6 76 -27 144l-17 58q-6 -134 -9 -324z" />
<glyph unicode="%" horiz-adv-x="580" d="M61 85q-2 8 8 18q12 12 24 31l45 66q28 44 43 65q8 12 25.5 35t26.5 35q4 6 9.5 14.5t10.5 17t9 14.5q6 10 14.5 22l17 24t14.5 22l53 84q4 6 16.5 22.5t18.5 26.5l38 63q6 12 18 34q7 13 12 14t19 -6q5 -12 -5 -27q-20 -32 -44 -68q-87 -132 -104 -157q-8 -12 -32 -46.5 t-35 -53.5q-8 -12 -18.5 -27t-22 -30t-18.5 -26q-51 -78 -105 -165q-4 -4 -4 -6q-1 -11 -17 -11q-14 1 -17 15zM98 528q-2 74 9 109.5t36 40.5q18 4 28 5.5t20 -1.5t13 -5t16.5 -13t22.5 -17q30 -23 39 -56t-8 -74l-7 -20q-2 -14 -25 -46q-6 -8 -13 -12t-17.5 -3.5t-15 1 t-18.5 4t-16 3.5q-58 18 -64 84zM127 522q5 -28 27.5 -44t47.5 -11.5t37 30.5l14 37q8 21 3.5 43.5t-20.5 38.5q-28 29 -46 35t-37 -1q-22 -4 -23 -27q0 -1 -1 -15.5t-1.5 -30.5t-1 -32.5t0.5 -22.5zM310 292l8 20q2 14 25 46q15 20 54 14q5 -1 13.5 -4t12.5 -4 q58 -18 63 -84q1 -75 -10 -110t-36 -40q-18 -4 -28 -5.5t-20 2t-13 5.5t-16.5 12.5l-22.5 17.5q-29 23 -38 56.5t8 73.5zM331 275q-8 -21 -3.5 -43.5t20.5 -38.5q27 -29 45 -35.5t37 0.5q22 4 23 27q1 7 3.5 48.5t0.5 52.5q-5 28 -27 44.5t-47 12t-37 -30.5z" />
<glyph unicode="&#x26;" horiz-adv-x="440" d="M48 219q5 41 46 103q18 27 79 108q-4 10 -11.5 28.5t-11.5 30t-9 27.5t-8 30q-3 17 -13 49q-11 34 -4 92q7 71 85 101q4 2 8 2q45 -2 65 -24q13 -13 16 -27q1 -7 5.5 -22t5.5 -23q2 -19 -2 -55q-3 -52 -24 -109q-14 -40 -27 -56q-6 -7 -35 -51q31 -69 56 -103 q2 -2 4.5 -6.5t3.5 -6.5q2 -4 11 -19t14 -24q16 -34 33 -72q35 50 41 81q4 15 -3.5 39.5t-18.5 33.5q-11 7 -19 14v20q0 14 8 19.5t16 -2.5q42 -37 47 -109q3 -30 -19 -72l-33 -61q5 -9 12.5 -28.5t15 -35t17.5 -27.5q11 -14 -1 -31.5t-24 3.5q-13 22 -45 95 q-30 -23 -36 -29q-27 -31 -79 -64q-57 -35 -99 14q-1 1 -16 14t-20 24q-29 60 -30 64q-7 18 -1 65zM80 223q-9 -43 4 -69q19 -43 41 -64q20 -19 44.5 -22t45.5 13q6 5 25.5 20.5t29.5 24.5q14 12 42 40q-26 57 -28 61q-9 17 -27.5 48.5t-24.5 41.5q-14 26 -41 80 q-65 -84 -70 -91q-33 -43 -41 -83zM141 667q-4 -30 13 -91q2 -10 10 -30t10 -31q1 -8 4 -15.5t6 -13.5t6.5 -13.5t5.5 -13.5q8 8 16 18.5t15 22t12 22t7 18.5q16 60 21 91q3 21 2.5 45t-10 44.5t-26.5 24.5q-26 8 -61 -18q-25 -18 -31 -60z" />
<glyph unicode="'" horiz-adv-x="109" d="M55 843q0 4 0.5 6.5t2.5 4t3 2.5t4.5 1.5t5 0.5h6.5h7q6 -17 6 -18q-7 -34 -3 -112q0 -8 -1 -11q-5 -9 -17.5 -9t-12.5 12q0 39 1 58q0 11 -0.5 32.5t-1.5 32.5z" />
<glyph unicode="(" horiz-adv-x="242" d="M75 506q10 75 22 136q2 12 8 32.5t7 25.5q2 6 11 31t12 38q8 27 33 72q0 1 2 4t3 5t4 3.5t6 1.5q7 0 13 -6.5t6 -14.5q-26 -36 -49 -112q-11 -28 -17 -57q-24 -103 -26 -143q-2 -20 -6 -59t-6 -58q-2 -23 0 -69q2 -54 5 -84q10 -91 29 -131q4 -10 22 -60q17 -50 31 -68 q13 -16 2 -37q-17 -4 -23.5 -1t-13.5 19q-18 45 -50 137q-27 74 -33 188t8 207z" />
<glyph unicode=")" horiz-adv-x="252" d="M50 -21q26 38 48 110q11 34 16 56q22 95 25 140q1 19 5.5 57t6.5 58q2 21 0 67q-2 54 -5 82q-10 88 -28 128q-5 12 -20 58.5t-31 67.5q-13 16 -2 36q16 5 22.5 1.5t12.5 -19.5q22 -54 49 -133q26 -75 32 -185t-8 -203q-9 -68 -21 -132q-2 -12 -8 -32.5t-7 -25.5 q-21 -62 -22 -67q-6 -27 -32 -70q-7 -15 -14 -15t-13 6.5t-6 14.5z" />
<glyph unicode="*" horiz-adv-x="250" d="M10 728q5 14 8 16t16 -1q18 -4 61 0q-5 3 -11 8.5t-10 9.5t-9.5 7.5t-11.5 5.5q-4 1 -5.5 3.5t-2.5 6.5t-3 14q7 6 13.5 6t11.5 -3t11.5 -7.5t11.5 -6.5q1 5 -0.5 15.5t-0.5 16.5t8 8q8 2 13.5 -3t7 -17t2 -19.5t0.5 -20.5v-5q7 1 21 15.5t25 4.5q17 -17 -15 -38l21 -3 q3 0 8.5 0.5t7.5 0.5q17 0 21.5 -7.5t-2.5 -24.5q-24 2 -36 4q0 -2 -1 -2q6 -4 11 -7q12 -5 12 -20q-2 -9 -10 -11q-9 -5 -21 5q-4 3 -9.5 8t-9.5 8t-9.5 7.5t-10.5 7.5q0 -34 2 -41q0 -2 1.5 -7t2 -7.5t0 -6.5t-3.5 -8q-16 -18 -24 2q-1 2 -4 17v27l-1 2q0 2 -1 3 q-17 -15 -30 -30q-13 -13 -24 -4q-11 11 1 24q13 15 28 28l-2 4h-27q-21 -2 -31 15z" />
<glyph unicode="+" horiz-adv-x="330" d="M60 346q0 4 1 6.5t3 4.5t4 3t6 2l6 1.5t7 1t7 0.5l75 2q-1 7 -2.5 19t-1.5 18q-1 11 -5.5 30.5t-5.5 24.5q-2 9 4.5 17t15.5 7q7 0 10.5 -3.5t5 -7t2.5 -11.5t2 -11l5 -82q7 0 21.5 1t22.5 1q7 0 22 1t22 1t15 -5t11 -15q1 -2 0 -6t-1 -7q-15 -3 -16 -3q-42 6 -95 3 l2 -38q1 -13 5 -39q2 -23 -21 -32h-3t-4.5 0.5t-5.5 0.5q-3 15 -3 16q5 36 1 90l-33 -2q-11 0 -30 -4t-25 -5q-10 -2 -17.5 4.5t-6.5 15.5z" />
<glyph unicode="," horiz-adv-x="122" d="M1 -114q5 12 17 35t20.5 43t11.5 40q0 4 0.5 11.5t1.5 11.5q3 3 6 4.5t6.5 0.5t5 -1t6 -3t5.5 -3q0 -22 -1 -25q-15 -66 -65 -125q-1 -2 -6 -2.5t-6 0.5q-5 7 -2 13z" />
<glyph unicode="-" horiz-adv-x="203" d="M40 341q1 3 5 14q42 2 55 2q38 2 58 2q17 0 27.5 -6t6.5 -20q-2 -6 -7 -9t-10 -1q-37 12 -105 0q-14 -3 -23 2t-7 16z" />
<glyph unicode="." horiz-adv-x="144" d="M50 29q0 9 8 16t19 7q19 1 24.5 -12t-2 -26.5t-20.5 -13.5q-9 0 -18.5 10t-10.5 19z" />
<glyph unicode="/" horiz-adv-x="282" d="M40 -40q7 28 17.5 78.5t14.5 68.5q3 15 38 145q37 114 59 234q5 36 19.5 102t17.5 80q4 19 11.5 53.5t13 63.5t8.5 57q-1 0 0 5t1 6q18 16 28 -2q8 -16 -3 -70q-30 -141 -39 -185q-7 -33 -25.5 -120t-29.5 -134q-5 -18 -22.5 -78.5t-24.5 -93.5q0 -1 -19 -79 q-3 -17 -9.5 -54.5t-10.5 -56.5q-1 -4 -3 -12.5t-4 -11.5q-7 -24 -25 -10q-3 1 -7.5 7t-5.5 7z" />
<glyph unicode="0" horiz-adv-x="341" d="M70 565q8 73 14 113q7 38 37 87q12 19 38 32q2 1 5 1t5 0.5t3 2.5q7 8 16.5 10t13.5 1t18 -5q35 -10 57 -24q49 -32 51 -100q2 -76 2 -226q2 -162 0 -242q-3 -83 -19 -146q-9 -36 -37.5 -59t-61.5 -20q-48 6 -85 34t-37 74v102q-2 32 -4.5 92t-5.5 114t-5 96q0 7 -1 16 t-2 16t-2 15.5t0 15.5zM106 509q1 -4 0.5 -11.5t0.5 -10.5q1 -23 7.5 -127t6.5 -161v-19v-22.5v-19.5l10 47q9 50 31 112q34 120 43 183q3 20 8.5 44.5t11 51t9.5 45.5q2 13 8 40.5t9.5 50t3.5 43.5v2q-6 4 -18.5 10t-15.5 8q-4 2 -13 0q-4 -1 -9.5 -3t-10.5 -4.5t-9 -3.5 q-24 -5 -40.5 -31t-21.5 -56q-23 -106 -11 -168zM136 62q23 -29 79 -36q24 -4 35 9q35 37 39 74q1 14 5 42t6 50t0 43q-1 3 -1 11q0 13 1 32.5t1.5 34t0 32.5t-2.5 33v102q2 64 1 98q0 10 -1.5 31.5t-1.5 32.5q0 6 -0.5 18.5t-0.5 18.5q0 21 -9 38l-3 -16 q-8 -35 -31.5 -155.5t-38.5 -183.5q-6 -25 -19.5 -71t-18.5 -64q-18 -77 -28 -147q-4 -24 -12 -27z" />
<glyph unicode="1" horiz-adv-x="255" d="M40 675q1 1 2 4.5t3 5.5q71 58 80 63q8 6 21 19.5t18 18.5q10 10 21 12q3 0 6 -1l7.5 -2.5t6.5 -2.5q-6 -67 -4 -224q1 -55 1.5 -156t0.5 -133v-44l-3 -194q0 -15 -15 -41q-15 6 -23 10l-2 9q11 60 9 97q0 17 1 26q2 26 1.5 73t0.5 73q1 22 1 197q-1 40 -2.5 119.5 t-1.5 118.5q0 2 -1.5 6.5t-1.5 7.5q-40 -19 -101 -78q-15 -1 -25 16z" />
<glyph unicode="2" horiz-adv-x="320" d="M50 17q0 9 5 21q4 8 14.5 32t16.5 38q1 3 7 13t8 16q36 93 39 103q9 27 33.5 107t41.5 122q9 23 22.5 65.5t17.5 55.5q22 52 23 107q1 35 -18.5 63.5t-51.5 21.5q-34 -6 -57 -27.5t-28 -56.5q-2 -10 -4 -29t-3 -29q-2 -13 -15 -13q-16 0 -18 15v7q8 58 15 87q0 2 17 27 q32 41 81 51q33 7 61 -7t41 -45q12 -28 12 -60q-1 -53 -20 -104q-4 -12 -27 -82.5t-38 -107.5q-13 -32 -33 -100t-33 -101q-2 -5 -21 -55l-30 -70q-2 -4 -5.5 -14.5t-5.5 -15.5q3 -3 5.5 -5t7 -3t6 -1h7.5h6q46 2 69 4q11 1 27.5 3.5t31.5 4.5t28 1q3 0 6.5 -4.5t4.5 -7.5 q2 -8 -5 -13.5t-13 -7.5t-16 -4q-65 -7 -84 -7q-35 0 -101 -10q-8 -2 -11 -2q-6 0 -11.5 5.5t-4.5 11.5z" />
<glyph unicode="3" horiz-adv-x="311" d="M61 688q15 60 61 81q5 2 17 7.5t19 8.5t18.5 5t22.5 1q18 -1 29.5 -3t20.5 -6.5t15.5 -13t11 -19.5t8.5 -29q11 -38 4 -87q-5 -50 -7 -113q-2 -39 -30 -55q-1 0 -5 -7l12 -13q26 -27 26 -66q0 -7 -1 -20.5t-1 -19.5q-2 -21 -1 -26q4 -20 5 -42.5t0 -50.5t-1 -42 q1 -8 0.5 -24t-0.5 -23q1 -61 -55 -110q-4 -3 -9 -5.5t-10.5 -4t-12 -3t-11.5 -2.5t-12 -2.5t-11 -2.5q-29 -5 -55.5 8.5t-32.5 36.5q-11 38 -9 54q2 22 -5 58q-4 17 2 21.5t28 1.5q9 -22 9 -75q0 -4 6 -47q4 -23 40 -26t58 10q12 6 20.5 14.5t13.5 20t8 21.5t3.5 27t1 27 t0 32t-0.5 32q0 105 1 157q0 21 -16 44q-4 5 -11.5 6t-18 0t-15.5 0q-10 0 -18 4q-7 4 -7.5 14t6.5 14q5 3 17 7q3 2 12 6.5t14 7.5q35 21 35 59q0 21 3 57.5t4 57.5t-3 57q0 5 -13 33q-6 12 -20 14q-57 9 -102 -28q-22 -18 -25 -52q0 -26 -12 -26q-13 -3 -18.5 11.5 t-2.5 27.5z" />
<glyph unicode="4" horiz-adv-x="316" d="M64 209q20 41 23 50q30 100 42 151q4 16 7 47.5t4 36.5q2 15 8 47.5t9 49.5q4 24 11 72.5t11 72.5q3 14 17 67q1 4 3.5 9t6.5 8t8 2q6 -1 13 -8.5t2 -14.5q-8 -18 -13.5 -40t-8.5 -39t-6.5 -42.5t-6.5 -39.5l-27 -155q0 -2 -1 -5.5t-1.5 -6.5t-0.5 -6q-1 -53 -28 -143 q-4 -12 -36 -120h150q13 87 8 137q-7 77 7 189v8q3 16 17 16q14 -2 14 -18q-2 -28 -4 -44q-9 -67 -5 -131q1 -18 -1 -110q0 -5 -0.5 -16.5t-0.5 -20.5t2 -18v-11v-138q0 -15 -7 -36q-3 -11 -17 -8t-14 15q1 18 2 54.5t1 54.5v35q-3 1 -9.5 3.5t-10.5 3.5q-62 9 -102 1 q-22 -3 -54 6q-26 9 -12 35z" />
<glyph unicode="5" horiz-adv-x="319" d="M63 773q-6 5 -2.5 13t11.5 11q2 1 6 2l4 1q46 2 69 5q10 3 34 1.5t33.5 -2.5t32 -4.5t31.5 -4.5q5 -15 -0.5 -24.5t-20.5 -19.5q-64 38 -151 9q-5 -27 -1 -80q5 -42 10 -106v-46q33 20 93 30q15 4 32 -8q36 -33 40 -73q1 -21 13 -114q0 -6 0.5 -19t1.5 -19v-36.5v-42.5 v-35q0 -10 -1 -23t-2 -25.5t-1 -22.5q-3 -49 -3 -50q2 -30 -10 -55.5t-35.5 -43t-54.5 -23.5q-23 -5 -44.5 6t-30.5 33q-4 8 -7 16.5t-5 20t-3 17.5t-2.5 22.5t-2.5 21.5q31 21 34 -8q3 -15 3 -32q0 -19 15 -43q13 -24 38 -19q33 6 53.5 27.5t19.5 53.5q0 37 2 55 q3 14 3.5 30.5t0 36.5t-0.5 31q0 10 0.5 32.5t0.5 40t-2 33.5q-1 16 -17 144q-3 19 -17.5 28.5t-33.5 5.5q-2 -1 -25 -9q-8 -2 -14.5 -5.5t-11 -8t-9 -10t-8.5 -11t-8.5 -11.5t-9.5 -11t-13 -2.5t-10 10.5q-6 9 -4 19q9 71 -7 211q-3 21 -3 43q-2 26 -10 37z" />
<glyph unicode="6" horiz-adv-x="348" d="M70 477q-1 44 4 198q0 7 8 50q5 33 39 55q58 39 118 16q23 -9 39.5 -34t15.5 -50q0 -16 -11 -17q-9 -1 -13 3t-7 15t-4 14q-9 27 -37.5 39.5t-54.5 0.5q-3 -2 -25 -15q-24 -11 -29 -40q-4 -23 -6.5 -54t-2.5 -54t-0.5 -61.5t-0.5 -56.5q0 -7 2 -37q15 19 47.5 41t40.5 29 q5 4 11 6.5t13.5 2t12.5 -1t13.5 -3.5t11.5 -4t12 -5.5l9 -4.5q40 -18 43 -58q1 -8 3 -16t5 -18t4 -16q13 -60 2 -127q-1 -5 0 -13.5t1 -11.5q-5 -97 -20 -178q-2 -13 -27 -42q-27 -36 -79 -39q-21 -2 -29 1q-56 21 -82 54q-12 15 -12 37q-4 86 -4 129q2 63 -4 94 q-3 13 -3 26q1 29 -1.5 81.5t-2.5 64.5zM105 347q9 -98 8 -127q-4 -83 5 -139q5 -29 28 -39q3 -1 12.5 -6t14.5 -7q31 -8 35 -8q61 9 72 58q16 73 20 123q7 96 4 126q-1 5 -1 15q4 41 -17 111q-7 22 -34.5 32.5t-48.5 -0.5q-55 -28 -69 -63q-9 -27 -17 -36q-12 -13 -12 -40z " />
<glyph unicode="7" horiz-adv-x="306" d="M51 803q3 10 18 10q13 -1 52 -2t61 -3q28 -2 98 7q16 2 22 -4.5t3 -22.5q-28 -128 -34 -175q-8 -50 -10 -58q-4 -18 -9 -38t-11.5 -44.5t-9.5 -37.5l-33 -124q-4 -17 -16 -61.5t-18 -69.5q-2 -8 -4.5 -25t-4.5 -25q-7 -25 -35 -124q-17 -10 -25 -2q-11 10 -4 31 q33 82 41 139q2 13 10 39q10 31 19.5 66t20.5 79t17 67q25 96 32 128q8 29 10 46q11 99 26 159q1 2 1 7v9q-3 0 -12 1.5t-14 1.5q-65 -4 -91 1q-3 2 -16.5 0.5t-16.5 -1.5h-40q-13 0 -21.5 7.5t-5.5 18.5z" />
<glyph unicode="8" horiz-adv-x="315" d="M64 647q0 3 -1.5 18t-1.5 21t-0.5 19t0.5 20.5t3 17.5t6 17.5t10 13.5q18 23 53 35t67 3q30 -9 53.5 -37.5t24.5 -58.5q0 -13 2 -36t2 -30q0 -4 -2 -14q-21 -60 -43 -88q-5 -6 -13 -18t-11 -16q7 -6 19 -14q47 -35 55 -103q15 -119 3 -237v-59q0 -9 -0.5 -26t-1.5 -25 q-2 -27 -19 -43t-40 -15q-9 0 -28.5 -2t-29.5 -2q-51 2 -73 46q-14 24 -17 55q-10 118 -1 223q7 78 25 125q2 6 5 12t7 13t6.5 11t8.5 11.5t7.5 9.5t9 11.5t8.5 10.5q-11 14 -15 18q-42 36 -73 104q-5 8 -5 9zM94 696q-3 -24 10 -58q7 -17 17.5 -31.5t29 -35t23.5 -26.5 q13 -13 25 4q21 33 39 66q9 14 10 27q1 14 0 39.5t-1 33.5q0 18 -14 35.5t-34 27t-37 5.5q-5 -1 -15.5 -5t-15.5 -5q-32 -11 -37 -50v-27zM107 227q2 -34 4 -102q1 -24 2.5 -35.5t6 -27.5t13.5 -25t23 -15q9 -4 40 -4q39 3 49 13t10 48q0 28 4.5 94.5t3.5 102.5 q0 61 -13 134q-9 56 -65 82q-3 -4 -7.5 -8t-8 -7.5t-7.5 -7t-7 -7.5t-5 -8q-19 -31 -24 -57q-21 -117 -19 -170z" />
<glyph unicode="9" horiz-adv-x="318" d="M62 152q1 10 7 14.5t21 6.5q4 -5 5 -9.5t0 -12t-1 -9.5q0 -42 2 -62q0 -9 9 -27q39 -65 114 -28q15 30 19 88q7 129 6 161q0 22 3 95t-1 94q-3 1 -5 1.5t-2 -0.5q-21 -21 -57 -19q-42 2 -51 6q-34 11 -44 36q-15 43 -15 63q0 19 -0.5 57t-0.5 57q0 53 31 107q17 30 50 34 q1 0 47 3q37 2 54 -60q5 -24 9 -48t6.5 -56t3.5 -45.5t3 -56t2 -48.5q2 -19 1 -78t-1 -79q2 -76 -3 -189q-3 -60 -14 -105q-6 -28 -19 -42t-44 -18t-51 0q-48 9 -70 58.5t-14 110.5zM101 614q1 -5 1 -29q0 -5 -0.5 -15t-0.5 -17.5t1 -14.5q5 -25 9.5 -36t15.5 -17t33 -9 q1 0 5 -0.5t6 -0.5q16 -2 28.5 2t19.5 15t11.5 21.5t6 29.5t1.5 30.5v33.5v17q0 11 -3 32.5t-3 32.5l-9 47q-4 26 -14 34t-36 6q-32 -2 -47 -24q-12 -18 -16 -37q-14 -66 -9 -101z" />
<glyph unicode=":" horiz-adv-x="138" d="M36 463q0 10 9 17.5t22 7.5q28 2 30 -20q2 -14 -7 -25.5t-21 -11.5q-10 0 -21 11t-12 21zM37 123q0 10 9 17.5t22 7.5q22 1 28 -13t-3 -29t-23 -15q-10 0 -21 10.5t-12 21.5z" />
<glyph unicode=";" horiz-adv-x="158" d="M10 -107q54 97 71 144q2 10 6 12q9 6 17 4q14 -7 5 -31q-7 -17 -17 -35t-23 -39.5t-20 -33.5q-7 -10 -18 -18q-2 -1 -9 -1.5t-12 -1.5zM82 175q-6 6 -2 15t11 9q16 3 26 -20q3 -6 -12 -20q-20 12 -23 16z" />
<glyph unicode="&#x3c;" horiz-adv-x="710" d="M41 398q0 15 16 20q13 7 26 8q13 2 49 8t62 9.5t50 4.5q6 0 46 8q30 5 95.5 14.5t100.5 14.5q12 2 49.5 10.5t58.5 11.5q37 5 33 -5q-5 -14 -56 -29l-16 -4q-58 -14 -167 -31.5t-137 -22.5q-26 -5 -62 -7q-34 -4 -49 -12q48 -19 88 -20q11 -1 31.5 -5t25.5 -5 q57 -8 169 -26q55 -9 90 -10q10 0 63 -8q6 -1 16.5 -2t14 -2t9.5 -3.5t7.5 -6.5t3 -11t1.5 -18q-10 2 -27.5 6.5t-23.5 5.5q-50 6 -75 8q-7 1 -22.5 2t-23.5 2q-27 4 -82 13t-83 13q-23 3 -70.5 9.5t-70.5 10.5q-21 4 -112 26l-11 3q-16 8 -17 20z" />
<glyph unicode="=" horiz-adv-x="370" d="M90 346q0 4 1 6.5t3 4.5t4 3t6 2t6.5 1.5t7 1t6.5 0.5q25 1 74.5 2.5t74.5 2.5l39 3q10 1 19 -5t12 -16q1 -2 0 -6t-1 -7q-15 -3 -16 -3q-19 3 -41.5 4t-36 0.5t-42 -2.5t-37.5 -3q-11 0 -30 -4t-25 -5q-10 -2 -17.5 4.5t-6.5 15.5zM92 209q0 5 2 8.5t6 5t7.5 2t9.5 1 t9 0.5l150 -3q6 0 19 0.5t20 0.5q10 1 18.5 -5.5t10.5 -16.5q1 -2 0 -6t-1 -7q-14 -3 -16 -2q-19 4 -41.5 6t-36.5 2t-41.5 -0.5t-37.5 -0.5q-11 1 -30 -2.5t-26 -3.5q-10 -1 -17 5.5t-5 15.5z" />
<glyph unicode="&#x3e;" horiz-adv-x="700" d="M36 487q10 -2 27.5 -6.5t23.5 -5.5q50 -6 75 -8q8 -1 23.5 -2t22.5 -2q165 -24 306 -45q22 -4 60.5 -13t52.5 -12l11 -3q16 -8 17 -20q0 -15 -16 -20q-13 -7 -26 -8q-128 -22 -161 -23q-6 0 -46 -8q-179 -27 -196 -30q-12 -2 -49.5 -10.5t-58.5 -11.5q-37 -5 -33 5 q5 14 56 29l16 4q59 14 170 32.5t134 22.5q26 5 62 7q34 4 49 12q-48 19 -88 20q-11 1 -32.5 5t-25.5 5q-30 4 -86.5 12.5t-82.5 12.5q-55 9 -90 10q-10 0 -63 8q-6 1 -16.5 2t-14 2t-9.5 3.5t-7.5 6.5t-3 11t-1.5 18z" />
<glyph unicode="?" horiz-adv-x="284" d="M31 694q-4 49 19 84.5t71 48.5q44 11 92 -15q23 -11 33 -42q21 -61 17 -108q-2 -20 -19 -70q-15 -37 -44.5 -106t-41.5 -99q-11 -25 -11 -50q-1 -7 -5 -31t-4 -38q-1 -44 -1 -131q0 -9 1 -26t1 -25q0 -19 -13 -19q-8 -1 -13 3.5t-6.5 14.5t-2 16t-0.5 19v51q0 83 1 99 q3 92 43 180q24 55 70 165q25 58 2 136q-7 25 -34.5 39t-54.5 6q-64 -17 -65 -85q0 -13 -2 -17.5t-15 -17.5q-17 7 -18 18zM98 -45q4 19 21 25q22 7 35 2q19 -7 14 -26q-7 -29 -38 -23q-10 1 -14 4t-18 18z" />
<glyph unicode="@" horiz-adv-x="470" d="M39 402q6 33 17 62.5t31 61t53.5 54t77.5 29.5q33 6 61 -5q6 -2 14 -4q39 -8 62 -38q35 -47 41 -76q9 -83 -1 -119.5t-42 -51.5q-13 -5 -45 -3q-24 3 -42 24q-11 12 -24 5q-1 -1 -4 -2t-4 -2q-35 -16 -59 10.5t-27 67.5q-2 27 16 51t44 33q31 12 58 -18q34 -36 30 -76 q0 -7 -3 -19t-2.5 -20.5t8.5 -15.5q17 -17 41 -7q20 10 25.5 22t5.5 34q1 60 -5.5 81t-30.5 54q-17 27 -54.5 39.5t-73.5 3.5q-74 -27 -114 -111t-21 -148q10 -30 32 -54q29 -29 96 -46q25 -7 43 -11q41 -10 81 17q27 19 30 37q1 6 7 11t11 4q18 -8 11.5 -26t-29.5 -39 q-46 -41 -94 -36q-36 3 -94 24q-5 1 -15.5 5.5t-16.5 5.5q-16 6 -51 34q-25 20 -36 43q-20 44 -8 115zM186 444q-18 -31 4 -71q12 -11 26.5 -9t29.5 11t17 35t-13 49q-7 9 -14.5 12.5t-14 2t-13.5 -6.5t-12.5 -10.5t-9.5 -12.5z" />
<glyph unicode="A" d="M40 27l9 47q3 13 7.5 39.5t6.5 39.5l13 79q6 42 17.5 116t20.5 136t15 117q3 21 13 142q2 31 26 45q14 10 22.5 -7.5t8.5 -33.5q-2 -23 7 -83q3 -24 7.5 -68.5t6.5 -58.5q7 -59 26 -203l24 -170q3 -19 11 -57q1 -7 4.5 -22t5.5 -24t3.5 -22t1.5 -25q-1 -7 -6.5 -11.5 t-11.5 -3.5q-7 0 -12 4.5t-6 10.5q-3 24 -7 65q0 2 -1.5 12t-2.5 17q-31 6 -84 -0.5t-74 -5.5l-6 -25q-3 -16 -10 -58q-4 -18 -21 -14t-14 22zM97 145q17 -7 22 -8q11 -1 33 1q10 1 27.5 3t32 3.5t27.5 2.5v17q-6 43 -17.5 119t-20.5 139.5t-15 120.5q0 3 -3.5 44t-5.5 62 q0 2 -8 23q-13 -108 -13 -111q-2 -13 -7 -38t-7 -37l-18 -138q-2 -14 -9 -58t-10 -68q-1 -8 -4.5 -25t-4.5 -25t1 -27z" />
<glyph unicode="B" horiz-adv-x="280" d="M42 67q6 46 8 139q0 13 1 22q5 37 6 79t0 94t0 80q0 15 -0.5 32.5t-1.5 31.5t-2 32t-1 32q-2 90 -2 136q0 27 4.5 35t30.5 30q51 -30 63 -36q54 -28 67 -88q6 -27 6 -92q-1 -20 -1 -36v-35.5t-3 -36.5q-11 -70 -59 -105l-8 -8v-1q-1 -1 -1 -3q3 -2 7.5 -5.5t8.5 -6 t8 -3.5q16 -6 37 -33q10 -13 10 -29v-13.5v-16v-13.5l-3 -146q-2 -32 -15 -46q-15 -15 -18 -17q-72 -36 -108 -48q-8 3 -9 4q-22 21 -25 29.5t0 41.5zM72 61q-2 -21 10 -29q42 12 77 30q28 14 28 65v75q0 50 1 76q0 28 -21 41q-28 17 -51 26q-4 2 -22 -1q-3 -4 -3 -5 q-4 -41 -8.5 -134.5t-10.5 -143.5zM85 731q0 -128 1 -192q0 -12 2 -39t2 -39.5t-2 -39.5q-4 -23 8 -38q8 5 23 13.5t21 12.5q17 11 30 34q15 32 16 63q1 70 0 142q-2 58 -30 83q-21 17 -62 37q-9 -13 -9 -37z" />
<glyph unicode="C" d="M60 172h2q-2 38 -2 56q0 101 1 150q3 120 3 121q1 19 1 181q0 6 2 19.5t3 20.5q2 40 44 71q25 18 58 18t51 -22q2 -2 6 -8l6 -9t5.5 -8.5t5.5 -10t3.5 -10t2.5 -11.5q3 -22 3 -64q1 -15 -14 -17q-5 -1 -8.5 0.5t-5.5 5.5t-3 7.5t-1.5 9.5t-0.5 10v11v9q-1 36 -28 60 q-29 20 -57 1q-29 -19 -33 -43q-9 -47 -6 -85q1 -8 -2 -97q-2 -72 -4 -109q-3 -30 -3 -63.5t1.5 -74t1.5 -62.5q0 -15 -1 -43t-1 -43q0 -22 3 -40q4 -57 56 -75q22 -6 35 -4q24 5 32 25t10 59q1 6 6 71q3 21 19 18q9 -1 15.5 -9t2.5 -17q-7 -16 -9 -46.5t-5 -41.5 q-1 -6 -3 -17t-3 -16q-13 -54 -67 -61q-49 -5 -94 41q-26 26 -26 66q1 13 -2 76z" />
<glyph unicode="D" horiz-adv-x="310" d="M60 770q-1 8 17 36q2 2 7 3t7 0q16 -9 51.5 -22.5t52.5 -24.5q45 -31 60 -68q16 -43 16 -76q0 -27 1 -82.5t1 -84.5v-13q-9 -111 -3 -306q1 -41 -32 -74q-45 -49 -126 -61q-6 -1 -10.5 1t-9 5.5t-6.5 4.5q-3 1 -9 2t-7 1l-2 4t-2 3.5t-1 2.5q0 11 0.5 30.5t1 35.5t1.5 31 q1 13 3.5 37t3.5 33v20.5v23v19.5q0 5 -1 21.5t0 25.5q2 44 -6 135q-2 34 0 138q4 76 -4 120q-2 14 -4 79zM93 706q9 -121 2 -234q-2 -34 3 -57q4 -22 4 -85v-39q0 -103 -2 -124q-6 -52 0 -129q13 -4 14 -4q61 6 105 49q19 17 19 46v32q-2 92 -1 138q1 24 3.5 66.5t3.5 57.5 q1 8 0 23t-1 20q0 6 -0.5 20.5t-0.5 21.5q-2 74 -4 110q-5 88 -79 121q-22 11 -43 18q-3 2 -11 4t-11 3q-1 -7 -1 -58z" />
<glyph unicode="E" d="M54 27v5v1q1 1 1 2q6 46 4 126q0 9 2 29l2 20v25q2 56 6 110q3 28 -1 63q-4 69 -2 205v23q0 64 -5 124q0 5 -1 8q0 3 -0.5 9t-0.5 8q1 5 5.5 11t8.5 6h1q9 0 21 3q4 0 12 0.5t12 0.5h10q27 -3 56 -3q8 -1 26 -1h5q2 0 7.5 -1t7 -1.5l4.5 -1.5t5 -3t4 -5q7 -11 0.5 -21.5 t-15.5 -10.5h-5q-21 7 -51 7h-24q-14 -2 -29 0q-2 0 -4 1h-2q-9 0 -16 -5v-113q0 -21 -1 -33v-74q0 -34 1 -51v-19q12 0 26 1t28.5 2.5t24.5 2.5q4 0 7 1q2 0 6 0.5t5 0.5q13 0 24 -11v-2q-1 -9 -2.5 -14t-4 -10.5t-6.5 -8t-10 -2.5t-20.5 2.5t-22.5 2.5q-23 0 -55 -9v-3 q5 -47 4.5 -72t-4 -71.5t-3.5 -73.5v-165h13q22 2 37 4q6 0 9 1h35q22 0 35 4l15 3h5q13 0 17 -13.5t-4 -23.5q-5 -13 -17 -13q-2 0 -7.5 2t-8.5 2q-13 0 -16 -3q-2 0 -6 -1.5t-6 -1.5t-2 1q-6 1 -20 1q-10 0 -31.5 -2t-31.5 -2h-5q-15 0 -36 3q-6 1 -11 8.5t-5 15.5z" />
<glyph unicode="F" horiz-adv-x="280" d="M50 780v2t1 3t1 3q19 18 57 16q10 0 62.5 -6.5t81.5 -3.5q16 2 23 2q6 0 10 -5.5t2 -12.5q-2 -11 -7.5 -15.5t-10.5 -4t-15.5 2t-17.5 1.5q-38 -1 -86 7q-38 5 -65 -3q-6 -117 3 -291q23 -14 47 -9l39 6q18 2 23 -10q3 -6 -5 -27q-28 -1 -103 -5q-8 -39 -3 -85 q2 -26 0 -102q0 -130 -1 -194q0 -14 -4 -36q-2 -14 -16 -12t-14 15q0 16 0.5 47.5t1.5 47.5l3 18v264l3 51q0 127 -6 190q-1 12 -1 36q4 47 -3 110z" />
<glyph unicode="G" horiz-adv-x="330" d="M60 521v102q0 11 4 35l8 59q20 85 93 89q4 0 14 2q26 1 48.5 -7t39 -25.5t22.5 -41.5q3 -9 3 -43q0 -7 -4.5 -12t-10.5 -5q-6 -1 -13 4t-8 11q-2 12 0 26q0 28 -26 44q-40 25 -91 5q-30 -14 -34 -52q-7 -49 -12 -98q0 -16 -0.5 -47.5t-1.5 -47.5q-1 -6 0 -12 q3 -17 3.5 -38t0 -38.5t0.5 -39.5q0 -21 5 -123v-59q0 -10 0.5 -31t1 -30.5t2 -26t4.5 -25.5t7.5 -21t12.5 -21t18 -16q9 -7 18 -9q37 -8 61 -8q10 -3 24 29q5 11 5 27q1 6 3 78q7 125 2 306q0 1 -2 15q-34 9 -66 5q-1 0 -7 -1.5t-10 -1.5q-6 0 -11.5 6t-6.5 13q0 18 30 18 q35 -1 98 -5q11 -8 9 -25q-2 -36 -1.5 -102.5t-0.5 -102.5q-3 -52 -1 -120q0 -58 -4 -88q-4 -28 -7 -33q-9 -19 -13.5 -26.5t-15 -15t-28.5 -9.5q-9 1 -29 1.5t-34 3.5q-60 14 -78 81q-9 26 -13 85q-1 24 -1.5 52t-1 62t-0.5 52q0 12 0.5 37.5t0.5 37.5q0 62 -4 84 q-2 8 -2 37z" />
<glyph unicode="H" horiz-adv-x="349" d="M70 35q1 19 6.5 68t6 69t-1.5 70q-6 45 0 88q2 36 2 54q1 42 1 125q0 11 -1 30t-1.5 35t-0.5 30v47q0 11 1.5 37t0.5 40q0 8 -1 17.5t-2.5 17t-2.5 17.5t-2 17q-3 15 10 18q11 4 16.5 -6t5.5 -24q2 -48 2 -70v-168q-1 -38 -0.5 -68.5t0 -68.5t-2.5 -68q-2 -26 1 -76.5 t1 -74.5q10 -11 32 -9q8 0 25 1t27 1t25 -0.5t27 -2.5q15 -1 30 15l3 60q1 33 1 93t1 109.5t4 93.5q1 20 -1 92q-2 86 -4 127q0 5 -1.5 13t-1.5 12q-2 20 12 22q21 3 21 -45q1 -35 1 -106v-47.5t-0.5 -55.5t-2.5 -47q-3 -45 -3 -126.5t-1 -115.5q-3 -60 -3 -62 q-1 -32 -1.5 -95t-0.5 -95q0 -15 -1 -22q-1 -9 -9 -12.5t-14.5 0.5t-5.5 14q0 10 3 71t-1 70q-41 17 -158 5q-9 -29 -9 -51q0 -12 -0.5 -36.5t-1.5 -36.5v-3l-1.5 -7.5t-1.5 -6t-3 -5.5t-5 -3.5t-7 -1.5q-8 0 -10.5 12.5t-1.5 24.5z" />
<glyph unicode="I" horiz-adv-x="183" d="M92 145q-1 42 6 128q9 118 4 190q-2 25 -2 90.5t-1 85.5q-1 13 -1 43.5t-1 55.5t-5 45q-1 3 1 10q12 13 23 5q12 -10 12 -51l3 -155q3 -181 2 -231q-1 -25 -4 -75.5t-4 -67.5v-19.5v-27v-29.5q0 -10 0.5 -25t1 -28.5t1.5 -30t1 -24.5q0 -13 -1 -19q-1 -7 -4 -10.5 t-9.5 -2.5t-9.5 2t-11 4q0 63 -2 137z" />
<glyph unicode="J" horiz-adv-x="320" d="M30 190q0 14 4.5 18t18.5 1q3 0 7 -3q4 -18 0 -52q-2 -44 5 -80q6 -43 46 -51q17 -4 50 13q2 2 7.5 7t8.5 7q12 9 13 23l3 23q0 29 1 62t2.5 73t2.5 62q9 178 9 181q0 8 -1 27.5t0 30.5q2 20 1.5 48.5t-2 48.5t-3.5 48.5t-2 48.5q0 7 -1.5 20.5t-1.5 18.5h-51q-6 8 -9 15 q-4 8 2.5 13.5t15.5 5.5q72 6 104 8q17 2 19 -20q0 -18 -16 -17q-11 0 -29 3q0 -2 -1.5 -10t-1.5 -11q2 -58 4 -91q0 -7 1 -21t1 -22v-137q-2 -39 -6 -116t-5 -115q-1 -23 -1.5 -61t-1.5 -70.5t-4 -59.5q-4 -18 -12 -26q-54 -51 -110 -39q-49 9 -61 67q-6 32 -6 129z" />
<glyph unicode="K" horiz-adv-x="340" d="M90 20q0 11 1 33t1 33q0 3 2.5 40t1.5 40t-2 40q-2 40 2 65q10 61 -4 145q-1 15 -1 35.5t1 35.5t2 35.5t1 35.5q1 50 -1 146q0 27 -4 83q-2 19 4.5 24.5t25.5 1.5q1 -23 2 -49.5t1 -47v-49.5v-49q1 -34 -3.5 -98.5t-4.5 -95.5q1 0 3 -1q3 0 4 -1q1 2 2.5 4t3.5 4.5t3 4.5 l24 48l63 147q24 53 29 65q7 14 14.5 30.5t16 37t13.5 32.5q4 14 9 19q6 9 15 5.5t9 -15.5q-5 -18 -7 -24q-4 -11 -11.5 -24.5t-14 -27t-8.5 -25.5l-12 -30q-15 -26 -38.5 -77t-33.5 -69l-4 -12q13 -14 15 -45q9 -70 22 -114q12 -49 20 -132q0 -15 2 -22l27 -112 q2 -7 7 -23.5t7 -25.5q3 -15 3 -17q2 -15 -12 -19q-12 -2 -18 12l-3 10q-9 47 -29 139q-12 66 -14 82q-4 59 -16 99q-15 48 -23 110q0 2 -5 12q-7 -9 -13 -27.5t-10 -24.5l-29 -45q-3 -97 -4 -108q-2 -12 -1.5 -17t2 -18t1.5 -19q0 -16 -2.5 -91.5t0.5 -90.5q0 -39 -13 -36 q-19 3 -19 28z" />
<glyph unicode="L" horiz-adv-x="240" d="M70 19q3 13 4.5 27t1.5 28.5v27t-0.5 28t-0.5 27.5v4q1 32 1 160.5t1 149.5q2 34 2 50l-3 188q0 7 -0.5 14t-0.5 13.5v14v13.5t-0.5 13.5t-0.5 13.5q0 3 0.5 7.5t0.5 6.5q19 4 25 0t7 -21q4 -110 1 -164q-1 -15 -0.5 -44.5t-0.5 -44.5q-3 -59 -2 -106q1 -68 1 -119 t-0.5 -63.5t0.5 -35.5q2 -88 1 -132v-36q4 -3 7.5 -4.5t9 -1t7 0.5t8.5 2l7 2q51 13 104 2q13 0 18.5 -13.5t-7.5 -20.5q-8 -4 -17 -4q-6 -2 -15 3q-29 11 -81 1l-56 -12q-9 -2 -16.5 6.5t-5.5 18.5z" />
<glyph unicode="M" horiz-adv-x="380" d="M61 791q-5 18 12 21h9q20 3 29 -15q45 -84 94 -173q1 -2 8 -7q14 18 18 26l60 123q6 13 8 24q3 11 14 18q10 4 31 -1q-3 -20 -6 -122v-103t-1 -104v-84.5t-4 -84.5q-3 -19 1 -44q5 -60 0 -141q-1 -18 -1.5 -52t-0.5 -45q0 -12 -0.5 -17t-4.5 -11t-12 -7q-5 0 -10 4.5 t-6 11.5q0 3 0.5 9t0.5 9q10 149 4 235v26q3 103 6 260q1 16 0 45t-1 38v51q0 15 2 39q-21 -23 -52 -86q-12 -22 -31 -52q-6 -10 -13 -13t-13.5 1.5t-10.5 15.5q-20 45 -68 131q-2 3 -8 11t-8 13q-6 -3 -6 -13q13 -168 11 -238q-5 -178 -5 -214q0 -17 2 -46.5t2 -39.5 q0 -25 0.5 -76t1.5 -76q0 -14 -5.5 -23t-15.5 -5q-13 3 -13 15q0 11 2 43.5t2 50.5q0 17 -1.5 52t-1.5 53q0 226 3 272q3 30 0 61q-7 140 -10 170q0 2 -12 64z" />
<glyph unicode="N" horiz-adv-x="349" d="M70 787q0 10 11 13l18 3l7 -14q44 -153 54 -210q16 -91 37 -167q64 -262 67 -278l4 -28q5 0 5 17q4 63 8 197q0 8 1 23t1 22q2 92 2 138q0 18 -2 60t-1 64q2 85 -2 146q0 15 1 18q3 6 18 11q16 0 16 -27l1 -51q0 -50 -1 -50q0 -13 -1.5 -75t0.5 -74q4 -55 -2 -187v-93 q0 -25 -10 -220q2 -21 -5 -36q-23 -1 -30.5 2.5t-11.5 19.5q-6 25 -18.5 83.5t-19.5 89.5q-2 12 -8.5 34t-8.5 31q-11 52 -33.5 157t-33.5 158q-11 55 -19 87q-5 14 -8 18q3 -77 3 -78q6 -50 2 -131q-2 -98 -4 -145q-3 -18 -1 -139t2 -135q0 -3 1 -9t1 -9q0 -18 -9 -22 q-10 -8 -18 -4q-5 9 -5 20q-6 89 -3 293q0 14 1 34.5t2.5 62t2.5 93.5q1 40 -3.5 114t-4.5 91z" />
<glyph unicode="O" horiz-adv-x="333" d="M40 565q8 73 14 113q7 38 37 87q12 19 38 32q2 1 5 1t5 0.5t3 2.5q7 8 16.5 10t13.5 1t18 -5q35 -10 57 -24q49 -32 51 -100q2 -76 2 -226q2 -162 0 -242q-3 -83 -19 -146q-9 -36 -37.5 -59t-61.5 -20q-48 6 -85 34t-37 74v102q-1 17 -6.5 131.5t-8.5 170.5q0 9 -3 30.5 t-2 32.5zM76 509v-11t1 -11q1 -23 7.5 -127t6.5 -161v-89q0 -72 94 -84q24 -4 35 9q35 37 39 74q1 14 5 42t6 50t0 43q-1 3 -1 11q0 15 1.5 41.5t1.5 48.5t-3 42v102q2 64 1 98q0 11 -2 33.5t-2 30.5v37q0 17 -5.5 30t-17.5 23.5t-20.5 16t-25.5 14.5l-6 3q-4 2 -13 0 q-4 -1 -9.5 -3t-10.5 -4.5t-9 -3.5q-24 -5 -40.5 -31t-21.5 -56q-23 -106 -11 -168z" />
<glyph unicode="P" d="M70 787q-2 17 14 17q38 -2 64 -16q2 -1 15 -10t17 -12t13.5 -10.5t15.5 -15t11 -15.5q24 -36 28 -73q9 -101 7 -243q0 -31 -32 -79q-4 -7 -27 -30q-64 -61 -65 -62l-23 -19v-98q0 -70 -2 -106q0 -8 -8 -20q-7 -5 -17 -5t-10 13v26q0 15 0.5 42t1 49t1.5 42q5 98 -1 170 q-1 16 2.5 45.5t3.5 41.5q1 25 1 148v122q0 53 -7 79q-3 9 -3 19zM108 288q0 -1 0.5 -4.5t1 -5.5t2 -4t5.5 -2q57 48 86 86q17 22 18 46q5 78 0 101q-2 12 -2 38q-1 11 -1 36v36q-2 57 -30 100q-24 34 -77 49q-2 -15 -1 -20q4 -59 1 -102q-2 -29 0 -117q2 -91 -3 -121 q-8 -44 0 -116z" />
<glyph unicode="Q" horiz-adv-x="370" d="M72 214q1 116 1 347l0.5 10t-0.5 10q-1 9 -1.5 18t-1 17t0.5 17.5t1.5 16.5t2 18t2.5 17t2.5 17.5t2.5 17.5q4 35 42 75q18 18 89 12q41 -2 60 -15q23 -13 37 -45t14 -66q0 -21 2.5 -60t2.5 -54v-73q0 -36 -1.5 -75t-3.5 -86.5t-3 -73.5q-1 -6 -1 -19q1 -47 -17 -135 q-7 -35 -26 -70q-15 -31 -43 -38q-2 -1 -7.5 -4t-8.5 -4q-1 -5 -1 -41q0 -37 -19 -35q-13 2 -13 14q-2 7 -2 23q0 9 2 35q-3 2 -9 5.5t-9 5.5q-58 25 -82 106q-13 52 -13 112zM101 606q1 -36 5 -118v-11q-3 -23 -3.5 -48.5t0.5 -59.5t1 -49q0 -9 -0.5 -29.5t-0.5 -30.5 q0 -100 12 -144q7 -27 23 -54q21 -29 42 -28q4 8 3 10q-1 11 -2.5 31t-1.5 30q14 8 20.5 6.5t10.5 -14.5q2 -8 2.5 -19t1.5 -23.5t2 -20.5q24 -1 33 19q15 23 22 47q22 94 20 141q-1 9 1 23q8 76 6 153q0 17 2 77t-1 78q-1 21 -3 62.5t-4 62.5q-3 31 -20.5 51.5t-40.5 24.5 q-22 4 -54 2q-50 -2 -61 -50q-18 -67 -15 -119z" />
<glyph unicode="R" horiz-adv-x="330" d="M90 4q8 135 5 166l3 102q6 127 7 187v55v65v55q0 7 -0.5 20.5t-0.5 20.5q2 68 -7 101q-9 28 23 32q10 0 21 -3.5t16 -6t18 -10.5t14 -8q62 -40 79 -131q15 -86 -3 -153q-10 -36 -39 -58q-15 -12 -52 -44q-4 -28 13 -70q38 -94 58 -141q5 -12 10 -31q15 -61 46 -121 q1 -2 9 -20q3 -6 -8 -24q-21 3 -30 24q-35 85 -50 140q-7 25 -18 54t-18 45.5t-24 54t-21 46.5q-14 -9 -12 -28q3 -44 -4 -113q-2 -20 0 -29q6 -11 3 -76.5t-3 -76.5t-2 -15q-1 -9 -9 -18q-4 -4 -24 9zM130 772q6 -125 7 -183q0 -27 -0.5 -57.5t-1.5 -67.5t-1 -58q2 1 6 2 t6 2q11 9 32 27t32 27q18 15 26 47t7.5 65t-6.5 68q-5 36 -27 74q-26 47 -80 54z" />
<glyph unicode="S" horiz-adv-x="270" d="M40 107q0 7 0.5 15t1.5 18t1 16q8 8 18.5 8.5t14.5 -11.5v-29q-4 -44 4 -69q7 -23 33.5 -32.5t46.5 4.5q18 13 36 32q6 6 10 19q10 38 7 79q-10 92 -31 158q-6 19 -17.5 59.5t-21.5 70.5t-22 57q-25 57 -41 102q-15 38 -24 76q-9 34 10 86q9 25 39 35t66 4 q37 -5 58.5 -42t14.5 -81q-2 -14 -13 -15q-10 -1 -15 6t-6 14.5t-1 20.5q0 42 -34 60q-24 13 -49.5 3t-32.5 -35q-11 -33 0 -65l30 -78q8 -24 25 -68t23 -59l21 -69q1 -3 3.5 -14.5t4.5 -17.5q10 -23 30 -102q20 -81 15 -166q-3 -51 -43 -81q-5 -4 -15.5 -10t-12.5 -8 q-34 -27 -81 -3q-3 1 -8.5 4t-7.5 4q-27 11 -32 42q-4 43 -5 62z" />
<glyph unicode="T" horiz-adv-x="280" d="M45 781q-7 13 -4 18.5t18 6.5q36 3 51 2.5t51 -3t52 -3.5h6h14t14.5 -1t12.5 -2t9 -4.5t4 -8.5t-3 -12l-11 -13q-55 15 -82 9q0 -12 -0.5 -35.5t-0.5 -34.5q-2 -83 0 -164q1 -16 3.5 -45.5t3.5 -38.5q1 -26 -1 -101.5t3 -99.5q2 0 1 -35l-1 -34q0 -23 0.5 -68.5 t0.5 -67.5q0 -17 -6 -51q-2 -17 -18 -13q-14 3 -14 19q0 9 1.5 27t2.5 28l3 84q1 20 1 62q0 7 -3.5 92t2.5 91q4 29 -1 65q-4 26 -5.5 52t-1.5 68v52q-1 48 -5 139q0 2 -1.5 6t-1.5 5q-19 4 -27.5 4.5t-28 -2.5t-29.5 -3q-1 1 -4 4.5t-5 5.5z" />
<glyph unicode="U" horiz-adv-x="320" d="M60 743v54q10 5 12 5q10 -1 13.5 -5t4.5 -14v-32q-3 -70 -2.5 -105t3 -105.5t2.5 -105.5q0 -19 2 -97.5t0 -97.5q-2 -33 -2 -101q0 -43 17 -74.5t47 -41.5q42 -16 81 15q21 16 19 49v26t1.5 26l2.5 25t3 25t3 26q2 26 7 100q0 9 -2 27q0 6 -0.5 17.5t-0.5 16.5 q3 118 2 141q-1 79 -5 230q-4 40 18 37q14 -2 14 -32q0 -41 0.5 -125.5t0.5 -126.5q0 -218 -10 -323q-4 -53 -3 -82q1 -48 -26 -79.5t-62 -29.5q-12 2 -25 0q-42 -3 -78 42q-3 4 -7.5 11.5t-5.5 8.5q-18 27 -18 60q4 155 -3 383q0 1 -3 252z" />
<glyph unicode="V" horiz-adv-x="380" d="M20 796q0 11 5 14q6 2 11.5 2t9.5 -3t7 -7t4 -9q14 -37 24 -71q10 -32 18 -70t16.5 -85t14.5 -73q14 -59 33.5 -173.5t22.5 -130.5q5 -26 7 -62q4 -34 13 -49q18 50 19 88q1 11 5 32.5t5 25.5l24 169q9 55 10 90q0 10 8 63q4 26 14 78q8 49 17 94q4 14 10.5 42t9.5 42 q7 22 28 13q7 -3 10 -7.5t2 -11.5t-2.5 -12t-5.5 -13.5t-5 -10.5q0 -3 -1 -5.5t-2 -5.5t-1 -4q-3 -18 -16 -68.5t-16 -79.5q0 -1 -11 -50q-6 -50 -8 -75q-1 -8 -2 -23t-2 -23l-24 -165q-3 -24 -9.5 -71t-10.5 -70q-4 -22 -13.5 -64.5t-10.5 -48.5l-3 -11q-8 -16 -20 -17 q-15 0 -20 16q-7 13 -8 26q-2 10 -9 48.5t-10.5 63.5t-4.5 49q0 6 -8 46q-19 122 -31 196q-2 12 -10.5 49.5t-11.5 58.5q-4 23 -10 50t-10.5 46t-13.5 50.5t-13 46.5q-4 20 -19 51q-1 2 -3 9t-3 10z" />
<glyph unicode="W" horiz-adv-x="470" d="M32 779q-6 18 5 24q10 5 18 -3.5t11 -18.5t5 -21q13 -53 18 -108q12 -97 21 -148q6 -36 20 -108l21 -108q4 -20 9.5 -60t9.5 -60q1 -4 3.5 -24.5t6.5 -34t11 -27.5q3 31 9 84t7 61q1 20 3 61t4 61q0 8 8 56q0 4 2 18t2 21q-1 12 12 31q4 5 12.5 4.5t12.5 -6.5 q8 -16 9 -25q8 -33 13.5 -72.5t11 -85.5t10.5 -76q2 -15 20 -110q8 0 10 9q2 17 9.5 62.5t10.5 70.5q15 107 15 152q0 8 0.5 16t1.5 16t2.5 15.5t2.5 16t2 15.5q2 19 5.5 53t6.5 62.5t6 53.5q4 39 16 125q0 2 1 3q2 14 12 17t17 -5t4 -21q-7 -44 -16 -76q-6 -24 -11 -90 q-7 -87 -18 -149q-4 -38 -4 -59q-3 -70 -30 -262q-3 -17 -6.5 -49t-4.5 -42q0 -13 -1 -19q-2 -18 -11 -22t-23 7q-15 15 -21 49q-27 153 -34 234q-1 14 -3.5 30.5t-7 38.5t-7.5 37q-1 -7 -2 -13.5t-2 -10.5t-2 -8.5t-1 -7.5q-3 -37 -7 -111q-1 -13 -4.5 -46t-5 -50.5 t-5 -44.5t-7 -50t-8.5 -45q-12 -13 -26 -11t-19 20q-1 5 -2 16t-2 16q-3 17 -10.5 66.5t-12.5 76.5q-5 32 -15 89.5t-13 73.5q-9 57 -29 171q-6 33 -7 46q-12 74 -15 105q-4 36 -24 104z" />
<glyph unicode="X" horiz-adv-x="350" d="M40 -6q-2 8 5 18q6 14 12 40q2 6 5 18.5t5 17.5q2 8 2 11q10 31 23.5 70t24.5 70t24.5 70t23.5 70q0 2 1.5 6t1.5 6l-3 13q-24 72 -25 76q-14 57 -68 223q-8 21 -19 57l-6 20q-1 4 -1 11q0 14 8 17h6q12 0 18 -21q7 -33 34 -112q4 -11 7.5 -22.5t8 -26t7.5 -23.5l27 -92 q2 -13 13 -49q0 -16 10 -21q3 3 3 7q8 19 19 57t14 48q12 37 33 107.5t25 82.5l1 1l3 11q9 29 13 38q2 5 7 10t10 5q10 0 11.5 -13t-3.5 -21q-1 0 -1 -2v-2l-9 -28q-85 -265 -92 -288q-6 -18 -13 -41q-1 -2 -3.5 -8.5t-3.5 -10.5q2 -4 2 -6l3 -9t4 -9q19 -60 23 -81 q6 -26 20 -58l6 -17q4 -11 10.5 -27.5t12.5 -32t11 -28.5q5 -15 11.5 -32.5t15 -39t12.5 -33.5q5 -9 0.5 -20.5t-11.5 -11.5q-6 0 -9 3.5t-6 10.5t-4 9q-2 8 -15 44q-30 74 -42 112q-15 40 -30 91l-12 38q-3 12 -11 34q-1 2 -2 6t-2 6h-1q-5 0 -7 -7q-7 -20 -19 -57t-17 -52 l-9 -28q-34 -98 -48 -162q-7 -41 -25 -63l-1 -2q-3 3 -8.5 7.5t-8 7.5t-2.5 7z" />
<glyph unicode="Y" horiz-adv-x="340" d="M40 783q0 3 0.5 6t1.5 6.5t1 5.5q20 5 24 -13q5 -20 12.5 -41.5t18 -46.5t15.5 -39q13 -34 61 -128q9 -19 19 -25q21 77 26 97q11 47 35 143q2 16 10 41q0 5 4 15q8 11 20 5q9 -4 6 -18q-4 -13 -8 -28.5t-8.5 -35t-7.5 -29.5q-4 -16 -10.5 -39.5t-11 -41t-10 -39 t-10.5 -39.5q-3 -15 -12 -52t-14 -64t-8 -53l-5 -25q-19 -82 -39 -209q-2 -14 -4 -20q-5 -17 -15 -51.5t-15 -51.5l-3 -14q-6 -11 -17 -10q-11 2 -11 14q-2 12 1 21q5 20 17 59t20.5 71t12.5 63q4 33 16.5 93t16.5 88q3 11 7 31.5t6 29.5l-20 35q-42 86 -63 131 q-13 31 -47 115q-5 11 -12 43z" />
<glyph unicode="Z" horiz-adv-x="320" d="M55 46q16 35 32 117q5 18 22 90.5t30 111.5q7 22 18 62.5t16 57.5q3 11 11.5 35t11.5 35q4 12 36 131q2 10 6.5 28t6.5 25q2 5 6 30q-2 0 -9.5 2t-11.5 2q-10 0 -34 -4q-17 -4 -33.5 -5.5t-43 -1.5h-32.5q-15 0 -21 14q-4 7 -1 14.5t8 7.5q6 1 11 0q36 -9 93 -2q6 1 24 2 t28 3q23 2 38 7q12 3 20 -11q-3 -13 -10 -40t-10 -40q-4 -13 -15 -51.5t-17 -58.5q-15 -57 -23 -76q-8 -24 -21 -72.5t-21 -71.5q-28 -97 -51 -200q-19 -85 -27 -113q-1 -4 -3.5 -12t-3.5 -10q-7 -22 -3.5 -30t20.5 -7q63 0 114 4q6 0 16.5 -0.5t19.5 0t17 3.5q5 3 13 -8 q6 -6 0 -20q-4 -10 -13 -9q-40 6 -96 -3q-4 -2 -28.5 -0.5t-27.5 1.5q-5 0 -15 -0.5t-15 -0.5q-15 -2 -29 10q-1 4 -3 12.5t-3 13.5t-0.5 13t3.5 15z" />
<glyph unicode="[" horiz-adv-x="255" d="M66 -1q5 31 7.5 89t5.5 83q9 94 5 181q0 16 0.5 48.5t-0.5 49.5q0 22 -1.5 69t-1.5 71q0 14 1.5 47t0.5 51q-1 9 -0.5 22t1.5 22t2 22t1 22q0 15 -3 21q-11 20 8.5 28.5t46.5 8.5q31 0 47 -1q13 0 10 -16q-1 -2 -2 -7.5t-1.5 -7.5t-2 -5t-4.5 -4t-7 0q-7 1 -22 2t-22 2 q-14 2 -15 -13q-7 -56 -6 -75q1 -8 0.5 -21t-1 -21.5t-1.5 -22t-1 -22.5q-2 -111 1 -143q0 -1 3 -62q0 -16 -0.5 -46t-0.5 -45q0 -5 1 -24t0 -29q-1 -32 -5 -95.5t-5 -89.5l-3 -79q0 -5 2 -17q6 -1 14 -1q2 0 29.5 2.5t41.5 3.5q4 0 10 -4q1 0 1 -2q7 -24 2 -31 q-11 -17 -29 -5q-6 2 -12.5 2.5t-14 -0.5t-11.5 -1q-6 0 -18.5 -1.5t-19.5 -1.5q-20 -1 -28 11t-3 35z" />
<glyph unicode="\" horiz-adv-x="325" d="M0 829q3 10 10.5 13.5t14.5 -1.5q18 -12 32 -62q38 -120 58 -180q10 -33 37 -117.5t41 -130.5q2 -9 18.5 -74.5t26.5 -98.5q2 -12 6 -25.5t9 -29t7 -23.5q7 -21 20.5 -58.5t17.5 -47.5q0 -2 1.5 -8t2.5 -9.5t1.5 -9t0 -9t-2 -6.5t-5.5 -4t-9 0l-18 6q-6 19 -21.5 67.5 t-23.5 75.5q-10 30 -39 145q-28 129 -65 233q-13 33 -32.5 96t-25.5 80q-6 19 -16.5 53t-20 62t-20.5 53q-2 0 -5 10z" />
<glyph unicode="]" horiz-adv-x="328" d="M86 826q10 14 31 7q6 -3 12 -3.5t14 0.5t12 1l39 3q41 0 32 -47q-4 -24 -6 -53.5t-3.5 -65t-3.5 -55.5q-9 -116 -5 -184v-98q0 -15 2 -65t2 -77q0 -11 -1.5 -46t-0.5 -55q1 -16 -2 -45t-3 -42q-2 -14 3 -22q6 -11 1 -21t-18 -13q-13 -2 -39 -4q-8 0 -24.5 0.5t-23.5 0.5 q-9 1 -11.5 4t-0.5 12l3 13q3 12 16 11q3 0 45 -3q14 -2 15 13q5 66 5 74q-1 17 1.5 50t2.5 40q2 112 -1 144q-3 22 -3 63q0 15 0.5 46t0.5 47q0 8 -1 25.5t-1 27.5l6 106q4 52 8 163q0 2 -0.5 7.5t-0.5 9.5q-4 0 -8.5 0.5t-6.5 0.5q-21 -2 -73 -8q-3 0 -11 6q0 1 -1 1 q0 2 -3 10.5t-2.5 11t3.5 9.5z" />
<glyph unicode="_" horiz-adv-x="460" d="M25 -8q24 0 68 2q17 1 69 -6q64 -9 110 -4q1 0 85 3q8 1 24.5 1t29.5 1t25 5h6q8 -11 3 -24q-2 -5 -5.5 -7t-6.5 -3t-9.5 -1.5t-9.5 -0.5l-86 -3q-98 -3 -117 -2q-16 1 -44 4t-38 4h-38q-8 -1 -25 -2t-26 -2q-7 0 -11 1q-17 2 -4 34z" />
<glyph unicode="`" horiz-adv-x="600" d="M233 844q-7 6 -7.5 15t6.5 16t15 3q18 -9 123 -54q26 -11 19 -28l-9 -9q-8 2 -11 4q-62 34 -127 49q-1 0 -4 2t-5 2z" />
<glyph unicode="a" d="M40 27l9 47q3 13 7.5 39.5t6.5 39.5l13 79q6 42 17.5 116t20.5 136t15 117q3 21 13 142q2 31 26 45q14 10 22.5 -7.5t8.5 -33.5q-2 -23 7 -83q3 -24 7.5 -68.5t6.5 -58.5q7 -59 26 -203l24 -170q3 -19 11 -57q1 -7 4.5 -22t5.5 -24t3.5 -22t1.5 -25q-1 -7 -6.5 -11.5 t-11.5 -3.5q-7 0 -12 4.5t-6 10.5q-3 24 -7 65q0 2 -1.5 12t-2.5 17q-31 6 -84 -0.5t-74 -5.5l-6 -25q-3 -16 -10 -58q-4 -18 -21 -14t-14 22zM97 145q17 -7 22 -8q11 -1 33 1q10 1 27.5 3t32 3.5t27.5 2.5v17q-6 43 -17.5 119t-20.5 139.5t-15 120.5q0 3 -3.5 44t-5.5 62 q0 2 -8 23q-13 -108 -13 -111q-2 -13 -7 -38t-7 -37l-18 -138q-2 -14 -9 -58t-10 -68q-1 -8 -4.5 -25t-4.5 -25t1 -27z" />
<glyph unicode="b" horiz-adv-x="280" d="M42 67q6 46 8 139q0 13 1 22q5 37 6 79t0 94t0 80q0 15 -0.5 32.5t-1.5 31.5t-2 32t-1 32q-2 90 -2 136q0 27 4.5 35t30.5 30q51 -30 63 -36q54 -28 67 -88q6 -27 6 -92q-1 -20 -1 -36v-35.5t-3 -36.5q-11 -70 -59 -105l-8 -8v-1q-1 -1 -1 -3q3 -2 7.5 -5.5t8.5 -6 t8 -3.5q16 -6 37 -33q10 -13 10 -29v-13.5v-16v-13.5l-3 -146q-2 -32 -15 -46q-15 -15 -18 -17q-72 -36 -108 -48q-8 3 -9 4q-22 21 -25 29.5t0 41.5zM72 61q-2 -21 10 -29q42 12 77 30q28 14 28 65v75q0 50 1 76q0 28 -21 41q-28 17 -51 26q-4 2 -22 -1q-3 -4 -3 -5 q-4 -41 -8.5 -134.5t-10.5 -143.5zM85 731q0 -128 1 -192q0 -12 2 -39t2 -39.5t-2 -39.5q-4 -23 8 -38q8 5 23 13.5t21 12.5q17 11 30 34q15 32 16 63q1 70 0 142q-2 58 -30 83q-21 17 -62 37q-9 -13 -9 -37z" />
<glyph unicode="c" d="M60 172h2q-2 38 -2 56q0 101 1 150q3 120 3 121q1 19 1 181q0 6 2 19.5t3 20.5q2 40 44 71q25 18 58 18t51 -22q2 -2 6 -8l6 -9t5.5 -8.5t5.5 -10t3.5 -10t2.5 -11.5q3 -22 3 -64q1 -15 -14 -17q-5 -1 -8.5 0.5t-5.5 5.5t-3 7.5t-1.5 9.5t-0.5 10v11v9q-1 36 -28 60 q-29 20 -57 1q-29 -19 -33 -43q-9 -47 -6 -85q1 -8 -2 -97q-2 -72 -4 -109q-3 -30 -3 -63.5t1.5 -74t1.5 -62.5q0 -15 -1 -43t-1 -43q0 -22 3 -40q4 -57 56 -75q22 -6 35 -4q24 5 32 25t10 59q1 6 6 71q3 21 19 18q9 -1 15.5 -9t2.5 -17q-7 -16 -9 -46.5t-5 -41.5 q-1 -6 -3 -17t-3 -16q-13 -54 -67 -61q-49 -5 -94 41q-26 26 -26 66q1 13 -2 76z" />
<glyph unicode="d" horiz-adv-x="310" d="M60 770q-1 8 17 36q2 2 7 3t7 0q16 -9 51.5 -22.5t52.5 -24.5q45 -31 60 -68q16 -43 16 -76q0 -27 1 -82.5t1 -84.5v-13q-9 -111 -3 -306q1 -41 -32 -74q-45 -49 -126 -61q-6 -1 -10.5 1t-9 5.5t-6.5 4.5q-3 1 -9 2t-7 1l-2 4t-2 3.5t-1 2.5q0 11 0.5 30.5t1 35.5t1.5 31 q1 13 3.5 37t3.5 33v20.5v23v19.5q0 5 -1 21.5t0 25.5q2 44 -6 135q-2 34 0 138q4 76 -4 120q-2 14 -4 79zM93 706q9 -121 2 -234q-2 -34 3 -57q4 -22 4 -85v-39q0 -103 -2 -124q-6 -52 0 -129q13 -4 14 -4q61 6 105 49q19 17 19 46v32q-2 92 -1 138q1 24 3.5 66.5t3.5 57.5 q1 8 0 23t-1 20q0 6 -0.5 20.5t-0.5 21.5q-2 74 -4 110q-5 88 -79 121q-22 11 -43 18q-3 2 -11 4t-11 3q-1 -7 -1 -58z" />
<glyph unicode="e" d="M54 27v5v1q1 1 1 2q6 46 4 126q0 9 2 29l2 20v25q2 56 6 110q3 28 -1 63q-4 69 -2 205v23q0 64 -5 124q0 5 -1 8q0 3 -0.5 9t-0.5 8q1 5 5.5 11t8.5 6h1q9 0 21 3q4 0 12 0.5t12 0.5h10q27 -3 56 -3q8 -1 26 -1h5q2 0 7.5 -1t7 -1.5l4.5 -1.5t5 -3t4 -5q7 -11 0.5 -21.5 t-15.5 -10.5h-5q-21 7 -51 7h-24q-14 -2 -29 0q-2 0 -4 1h-2q-9 0 -16 -5v-113q0 -21 -1 -33v-74q0 -34 1 -51v-19q12 0 26 1t28.5 2.5t24.5 2.5q4 0 7 1q2 0 6 0.5t5 0.5q13 0 24 -11v-2q-1 -9 -2.5 -14t-4 -10.5t-6.5 -8t-10 -2.5t-20.5 2.5t-22.5 2.5q-23 0 -55 -9v-3 q5 -47 4.5 -72t-4 -71.5t-3.5 -73.5v-165h13q22 2 37 4q6 0 9 1h35q22 0 35 4l15 3h5q13 0 17 -13.5t-4 -23.5q-5 -13 -17 -13q-2 0 -7.5 2t-8.5 2q-13 0 -16 -3q-2 0 -6 -1.5t-6 -1.5t-2 1q-6 1 -20 1q-10 0 -31.5 -2t-31.5 -2h-5q-15 0 -36 3q-6 1 -11 8.5t-5 15.5z" />
<glyph unicode="f" horiz-adv-x="280" d="M50 780v2t1 3t1 3q19 18 57 16q10 0 62.5 -6.5t81.5 -3.5q16 2 23 2q6 0 10 -5.5t2 -12.5q-2 -11 -7.5 -15.5t-10.5 -4t-15.5 2t-17.5 1.5q-38 -1 -86 7q-38 5 -65 -3q-6 -117 3 -291q23 -14 47 -9l39 6q18 2 23 -10q3 -6 -5 -27q-28 -1 -103 -5q-8 -39 -3 -85 q2 -26 0 -102q0 -130 -1 -194q0 -14 -4 -36q-2 -14 -16 -12t-14 15q0 16 0.5 47.5t1.5 47.5l3 18v264l3 51q0 127 -6 190q-1 12 -1 36q4 47 -3 110z" />
<glyph unicode="g" horiz-adv-x="330" d="M60 521v102q0 11 4 35l8 59q20 85 93 89q4 0 14 2q26 1 48.5 -7t39 -25.5t22.5 -41.5q3 -9 3 -43q0 -7 -4.5 -12t-10.5 -5q-6 -1 -13 4t-8 11q-2 12 0 26q0 28 -26 44q-40 25 -91 5q-30 -14 -34 -52q-7 -49 -12 -98q0 -16 -0.5 -47.5t-1.5 -47.5q-1 -6 0 -12 q3 -17 3.5 -38t0 -38.5t0.5 -39.5q0 -21 5 -123v-59q0 -10 0.5 -31t1 -30.5t2 -26t4.5 -25.5t7.5 -21t12.5 -21t18 -16q9 -7 18 -9q37 -8 61 -8q10 -3 24 29q5 11 5 27q1 6 3 78q7 125 2 306q0 1 -2 15q-34 9 -66 5q-1 0 -7 -1.5t-10 -1.5q-6 0 -11.5 6t-6.5 13q0 18 30 18 q35 -1 98 -5q11 -8 9 -25q-2 -36 -1.5 -102.5t-0.5 -102.5q-3 -52 -1 -120q0 -58 -4 -88q-4 -28 -7 -33q-9 -19 -13.5 -26.5t-15 -15t-28.5 -9.5q-9 1 -29 1.5t-34 3.5q-60 14 -78 81q-9 26 -13 85q-1 24 -1.5 52t-1 62t-0.5 52q0 12 0.5 37.5t0.5 37.5q0 62 -4 84 q-2 8 -2 37z" />
<glyph unicode="h" horiz-adv-x="349" d="M70 35q1 19 6.5 68t6 69t-1.5 70q-6 45 0 88q2 36 2 54q1 42 1 125q0 11 -1 30t-1.5 35t-0.5 30v47q0 11 1.5 37t0.5 40q0 8 -1 17.5t-2.5 17t-2.5 17.5t-2 17q-3 15 10 18q11 4 16.5 -6t5.5 -24q2 -48 2 -70v-168q-1 -38 -0.5 -68.5t0 -68.5t-2.5 -68q-2 -26 1 -76.5 t1 -74.5q10 -11 32 -9q8 0 25 1t27 1t25 -0.5t27 -2.5q15 -1 30 15l3 60q1 33 1 93t1 109.5t4 93.5q1 20 -1 92q-2 86 -4 127q0 5 -1.5 13t-1.5 12q-2 20 12 22q21 3 21 -45q1 -35 1 -106v-47.5t-0.5 -55.5t-2.5 -47q-3 -45 -3 -126.5t-1 -115.5q-3 -60 -3 -62 q-1 -32 -1.5 -95t-0.5 -95q0 -15 -1 -22q-1 -9 -9 -12.5t-14.5 0.5t-5.5 14q0 10 3 71t-1 70q-41 17 -158 5q-9 -29 -9 -51q0 -12 -0.5 -36.5t-1.5 -36.5v-3l-1.5 -7.5t-1.5 -6t-3 -5.5t-5 -3.5t-7 -1.5q-8 0 -10.5 12.5t-1.5 24.5z" />
<glyph unicode="i" horiz-adv-x="195" d="M85 781q0 6 6.5 12t13.5 6q15 1 19.5 -8.5t-1.5 -19.5t-17 -10q-7 0 -14 6.5t-7 13.5zM92 130q-1 35 6 120q9 102 4 173q-1 23 -1 74t-2 74q-1 10 -1 35.5t-1 48.5t-5 43q-3 10 7 15.5t17 -0.5q12 -10 12 -51l3 -132q4 -117 2 -201q-1 -26 -4 -71t-4 -56v-19v-26.5v-29.5 q0 -16 2 -51t2 -42q0 -13 -1 -19q-1 -7 -4 -10.5t-9.5 -2.5t-9.5 2t-11 4q0 48 -2 122z" />
<glyph unicode="j" horiz-adv-x="320" d="M30 190q0 14 4.5 18t18.5 1q3 0 7 -3q4 -18 0 -52q-2 -44 5 -80q6 -43 46 -51q17 -4 50 13q2 2 7.5 7t8.5 7q12 9 13 23l3 23q0 29 1 62t2.5 73t2.5 62q9 178 9 181q0 8 -1 27.5t0 30.5q2 20 1.5 48.5t-2 48.5t-3.5 48.5t-2 48.5q0 7 -1.5 20.5t-1.5 18.5h-51q-6 8 -9 15 q-4 8 2.5 13.5t15.5 5.5q72 6 104 8q17 2 19 -20q0 -18 -16 -17q-11 0 -29 3q0 -2 -1.5 -10t-1.5 -11q2 -58 4 -91q0 -7 1 -21t1 -22v-137q-2 -39 -6 -116t-5 -115q-1 -23 -1.5 -61t-1.5 -70.5t-4 -59.5q-4 -18 -12 -26q-54 -51 -110 -39q-49 9 -61 67q-6 32 -6 129z" />
<glyph unicode="k" horiz-adv-x="340" d="M90 20q0 11 1 33t1 33q0 3 2.5 40t1.5 40t-2 40q-2 40 2 65q10 61 -4 145q-1 15 -1 35.5t1 35.5t2 35.5t1 35.5q1 50 -1 146q0 27 -4 83q-2 19 4.5 24.5t25.5 1.5q1 -23 2 -49.5t1 -47v-49.5v-49q1 -34 -3.5 -98.5t-4.5 -95.5q1 0 3 -1q3 0 4 -1q1 2 2.5 4t3.5 4.5t3 4.5 l24 48l63 147q24 53 29 65q7 14 14.5 30.5t16 37t13.5 32.5q4 14 9 19q6 9 15 5.5t9 -15.5q-5 -18 -7 -24q-4 -11 -11.5 -24.5t-14 -27t-8.5 -25.5l-12 -30q-15 -26 -38.5 -77t-33.5 -69l-4 -12q13 -14 15 -45q9 -70 22 -114q12 -49 20 -132q0 -15 2 -22l27 -112 q2 -7 7 -23.5t7 -25.5q3 -15 3 -17q2 -15 -12 -19q-12 -2 -18 12l-3 10q-9 47 -29 139q-12 66 -14 82q-4 59 -16 99q-15 48 -23 110q0 2 -5 12q-7 -9 -13 -27.5t-10 -24.5l-29 -45q-3 -97 -4 -108q-2 -12 -1.5 -17t2 -18t1.5 -19q0 -16 -2.5 -91.5t0.5 -90.5q0 -39 -13 -36 q-19 3 -19 28z" />
<glyph unicode="l" horiz-adv-x="240" d="M70 19q3 13 4.5 27t1.5 28.5v27t-0.5 28t-0.5 27.5v4q1 36 -2 103.5t-3 85.5q0 28 4.5 85t4.5 86l-3 188q0 7 -0.5 14t-0.5 13.5v14v13.5t-0.5 13.5t-0.5 13.5q0 3 0.5 7.5t0.5 6.5q19 4 25 0t7 -21q4 -110 1 -164q-4 -59 -1 -89q3 -36 -7 -106q-2 -15 -2.5 -32.5 t-0.5 -29.5t1 -32.5t1 -30.5q0 -13 1 -29.5t2 -33.5t2 -30l3 -132v-36q4 -3 7.5 -4.5t9 -1t7 0.5t8.5 2l7 2q51 13 104 2q13 0 18.5 -13.5t-7.5 -20.5q-8 -4 -17 -4q-6 -2 -15 3q-29 11 -81 1l-56 -12q-9 -2 -16.5 6.5t-5.5 18.5z" />
<glyph unicode="m" horiz-adv-x="380" d="M61 791q-5 18 12 21h9q20 3 29 -15q45 -84 94 -173q1 -2 8 -7q14 18 18 26l60 123q6 13 8 24q3 11 14 18q10 4 31 -1q-3 -20 -6 -122v-103t-1 -104v-84.5t-4 -84.5q-3 -19 1 -44q5 -60 0 -141q-1 -18 -1.5 -52t-0.5 -45q0 -12 -0.5 -17t-4.5 -11t-12 -7q-5 0 -10 4.5 t-6 11.5q0 3 0.5 9t0.5 9q10 149 4 235v26q3 103 6 260q1 16 0 45t-1 38v51q0 15 2 39q-21 -23 -52 -86q-12 -22 -31 -52q-6 -10 -13 -13t-13.5 1.5t-10.5 15.5q-20 45 -68 131q-2 3 -8 11t-8 13q-6 -3 -6 -13q13 -168 11 -238q-5 -178 -5 -214q0 -17 2 -46.5t2 -39.5 q0 -25 0.5 -76t1.5 -76q0 -14 -5.5 -23t-15.5 -5q-13 3 -13 15q0 11 2 43.5t2 50.5q0 17 -1.5 52t-1.5 53q0 226 3 272q3 30 0 61q-7 140 -10 170q0 2 -12 64z" />
<glyph unicode="n" horiz-adv-x="349" d="M68 787q0 10 11 13l21 3l3 -6q4 -5 4 -8q44 -153 54 -210q16 -91 37 -167q3 -11 6 -23t5 -22.5t4.5 -23t5 -23t5 -23.5t4.5 -23q0 -2 1 -3q21 -77 31 -137q0 -2 8 -28q5 4 5 17q4 63 8 197q0 8 1 23t1 22q2 92 2 138q0 18 -2 60t-1 64q2 85 -2 146q0 16 1 18q4 8 13 11 q16 0 16 -27v-51q1 -50 0 -50q0 -13 -1.5 -75t0.5 -74q4 -55 -2 -187v-93q0 -12 -2 -34l-4 -56q-3 -65 -5 -78q-2 -12 1 -45.5t-5 -42.5q-19 -1 -24 2.5t-9 19.5q-6 25 -18.5 83.5t-19.5 89.5q-2 12 -8.5 34t-8.5 31q-12 52 -33.5 157t-33.5 158q-11 55 -19 87q-6 17 -12 18 q3 -77 3 -78q6 -50 2 -131q-2 -109 -6 -145q-7 -65 -2 -269q0 -3 1 -9t1 -9q0 -16 -9 -22q-4 -2 -11.5 -2.5t-9.5 -1.5q-4 18 -4 20q-1 63 -1 191q0 32 4 55q5 44 7 131q1 17 2 50.5t2 50.5q0 31 -2 64.5t-6 76.5t-6 64q-1 12 -1.5 26t-1 30.5t-0.5 25.5z" />
<glyph unicode="o" horiz-adv-x="333" d="M40 565q8 73 14 113q7 38 37 87q12 19 38 32q2 1 5 1t5 0.5t3 2.5q7 8 16.5 10t13.5 1t18 -5q35 -10 57 -24q49 -32 51 -100q2 -76 2 -226q2 -162 0 -242q-3 -83 -19 -146q-9 -36 -37.5 -59t-61.5 -20q-48 6 -85 34t-37 74v102q-1 17 -6.5 131.5t-8.5 170.5q0 9 -3 30.5 t-2 32.5zM76 509v-11t1 -11q1 -23 7.5 -127t6.5 -161v-89q0 -72 94 -84q24 -4 35 9q35 37 39 74q1 14 5 42t6 50t0 43q-1 3 -1 11q0 15 1.5 41.5t1.5 48.5t-3 42v102q2 64 1 98q0 11 -2 33.5t-2 30.5v37q0 17 -5.5 30t-17.5 23.5t-20.5 16t-25.5 14.5l-6 3q-4 2 -13 0 q-4 -1 -9.5 -3t-10.5 -4.5t-9 -3.5q-24 -5 -40.5 -31t-21.5 -56q-23 -106 -11 -168z" />
<glyph unicode="p" d="M70 787q-2 17 14 17q38 -2 64 -16q2 -1 15 -10t17 -12t13.5 -10.5t15.5 -15t11 -15.5q24 -36 28 -73q9 -101 7 -243q0 -31 -32 -79q-4 -7 -27 -30q-64 -61 -65 -62l-24 -19v-98q0 -70 -1 -106q0 -8 -8 -20q-7 -5 -17 -5t-10 13v26q0 15 0.5 42t1 49t1.5 42q5 98 -1 170 q-1 16 2.5 45.5t3.5 41.5q1 25 1 148v122q0 53 -7 79q-3 9 -3 19zM108 288q0 -1 0.5 -4.5t1 -5.5t2 -4t5.5 -2q57 48 86 86q17 22 18 46q5 78 0 101q-2 12 -2 38q-1 11 -1 36v36q-2 57 -30 100q-24 34 -77 49q-2 -15 -1 -20q4 -59 1 -102q-2 -29 0 -117q2 -91 -3 -121 q-8 -44 0 -116z" />
<glyph unicode="q" horiz-adv-x="370" d="M72 214q1 116 1 347l0.5 10t-0.5 10q-1 9 -1.5 18t-1 17t0.5 17.5t1.5 16.5t2 18t2.5 17t2.5 17.5t2.5 17.5q4 35 42 75q18 18 89 12q41 -2 60 -15q23 -13 37 -45t14 -66q0 -21 2.5 -60t2.5 -54v-73q0 -36 -1.5 -75t-3.5 -86.5t-3 -73.5q-1 -6 -1 -19q1 -47 -17 -135 q-7 -35 -26 -70q-15 -31 -43 -38q-2 -1 -7.5 -4t-8.5 -4q-1 -5 -1 -41q0 -37 -19 -35q-13 2 -13 14q-2 7 -2 23q0 9 2 35q-3 2 -9 5.5t-9 5.5q-58 25 -82 106q-13 52 -13 112zM101 606q1 -36 5 -118v-11q-3 -23 -3.5 -48.5t0.5 -59.5t1 -49q0 -9 -0.5 -29.5t-0.5 -30.5 q0 -100 12 -144q7 -27 23 -54q21 -29 42 -28q4 8 3 10q-1 11 -2.5 31t-1.5 30q14 8 20.5 6.5t10.5 -14.5q2 -8 2.5 -19t1.5 -23.5t2 -20.5q24 -1 33 19q15 23 22 47q22 94 20 141q-1 9 1 23q8 76 6 153q0 17 2 77t-1 78q-1 21 -3 62.5t-4 62.5q-3 31 -20.5 51.5t-40.5 24.5 q-22 4 -54 2q-50 -2 -61 -50q-18 -67 -15 -119z" />
<glyph unicode="r" horiz-adv-x="330" d="M90 4q8 135 5 166l3 102q6 127 7 187v55v65v55q0 7 -0.5 20.5t-0.5 20.5q2 68 -7 101q-9 28 23 32q10 0 21 -3.5t16 -6t18 -10.5t14 -8q62 -40 79 -131q15 -86 -3 -153q-10 -36 -39 -58q-15 -12 -52 -44q-4 -28 13 -70q38 -94 58 -141q5 -12 10 -31q15 -61 46 -121 q1 -2 9 -20q3 -6 -8 -24q-21 3 -30 24q-35 85 -50 140q-7 25 -18 54t-18 45.5t-24 54t-21 46.5q-14 -9 -12 -28q3 -44 -4 -113q-2 -20 0 -29q6 -11 3 -76.5t-3 -76.5t-2 -15q-1 -9 -9 -18q-4 -4 -24 9zM130 772q6 -125 7 -183q0 -27 -0.5 -57.5t-1.5 -67.5t-1 -58q2 1 6 2 t6 2q11 9 32 27t32 27q18 15 26 47t7.5 65t-6.5 68q-5 36 -27 74q-26 47 -80 54z" />
<glyph unicode="s" horiz-adv-x="270" d="M40 107q0 7 0.5 15t1.5 18t1 16q8 8 18.5 8.5t14.5 -11.5v-29q-4 -44 4 -69q7 -23 33.5 -32.5t46.5 4.5q18 13 36 32q6 6 10 19q10 38 7 79q-10 92 -31 158q-6 19 -17.5 59.5t-21.5 70.5t-22 57q-25 57 -41 102q-15 38 -24 76q-9 34 10 86q9 25 39 35t66 4 q37 -5 58.5 -42t14.5 -81q-2 -14 -13 -15q-10 -1 -15 6t-6 14.5t-1 20.5q0 42 -34 60q-24 13 -49.5 3t-32.5 -35q-11 -33 0 -65l30 -78q8 -24 25 -68t23 -59l21 -69q1 -3 3.5 -14.5t4.5 -17.5q10 -23 30 -102q20 -81 15 -166q-3 -51 -43 -81q-5 -4 -15.5 -10t-12.5 -8 q-34 -27 -81 -3q-3 1 -8.5 4t-7.5 4q-27 11 -32 42q-4 43 -5 62z" />
<glyph unicode="t" horiz-adv-x="280" d="M45 781q-7 13 -4 18.5t18 6.5q36 3 51 2.5t51 -3t52 -3.5h6h14t14.5 -1t12.5 -2t9 -4.5t4 -8.5t-3 -12l-11 -13q-55 15 -82 9q0 -12 -0.5 -35.5t-0.5 -34.5q-2 -83 0 -164q1 -16 3.5 -45.5t3.5 -38.5q1 -26 -1 -101.5t3 -99.5q2 0 1 -35l-1 -34q0 -23 0.5 -68.5 t0.5 -67.5q0 -17 -6 -51q-2 -17 -18 -13q-14 3 -14 19q0 9 1.5 27t2.5 28l3 84q1 20 1 62q0 7 -3.5 92t2.5 91q4 29 -1 65q-4 26 -5.5 52t-1.5 68v52q-1 48 -5 139q0 2 -1.5 6t-1.5 5q-19 4 -27.5 4.5t-28 -2.5t-29.5 -3q-1 1 -4 4.5t-5 5.5z" />
<glyph unicode="u" horiz-adv-x="320" d="M60 743v54q10 5 12 5q10 -1 13.5 -5t4.5 -14v-32q-3 -70 -2.5 -105t3 -105.5t2.5 -105.5q0 -19 2 -97.5t0 -97.5q-2 -33 -2 -101q0 -43 17 -74.5t47 -41.5q42 -16 81 15q21 16 19 49v26t1.5 26l2.5 25t3 25t3 26q2 26 7 100q0 9 -2 27q0 6 -0.5 17.5t-0.5 16.5 q3 118 2 141q-1 79 -5 230q-4 40 18 37q14 -2 14 -32q0 -41 0.5 -125.5t0.5 -126.5q0 -218 -10 -323q-4 -53 -3 -82q1 -48 -26 -79.5t-62 -29.5q-12 2 -25 0q-42 -3 -78 42q-3 4 -7.5 11.5t-5.5 8.5q-18 27 -18 60q4 155 -3 383q0 1 -3 252z" />
<glyph unicode="v" horiz-adv-x="380" d="M20 796q0 11 5 14q6 2 11.5 2t9.5 -3t7 -7t4 -9q14 -37 24 -71q10 -32 18 -70t16.5 -85t14.5 -73q14 -59 33.5 -173.5t22.5 -130.5q5 -26 7 -62q4 -34 13 -49q18 50 19 88q1 11 5 32.5t5 25.5l24 169q9 55 10 90q0 10 8 63q4 26 14 78q8 49 17 94q4 14 10.5 42t9.5 42 q7 22 28 13q7 -3 10 -7.5t2 -11.5t-2.5 -12t-5.5 -13.5t-5 -10.5q0 -3 -1 -5.5t-2 -5.5t-1 -4q-3 -18 -16 -68.5t-16 -79.5q0 -1 -11 -50q-6 -50 -8 -75q-1 -8 -2 -23t-2 -23l-24 -165q-3 -24 -9.5 -71t-10.5 -70q-4 -22 -13.5 -64.5t-10.5 -48.5l-3 -11q-8 -16 -20 -17 q-15 0 -20 16q-7 13 -8 26q-2 10 -9 48.5t-10.5 63.5t-4.5 49q0 6 -8 46q-19 122 -31 196q-2 12 -10.5 49.5t-11.5 58.5q-4 23 -10 50t-10.5 46t-13.5 50.5t-13 46.5q-4 20 -19 51q-1 2 -3 9t-3 10z" />
<glyph unicode="w" horiz-adv-x="470" d="M32 779q-6 18 5 24q10 5 18 -3.5t11 -18.5t5 -21q13 -53 18 -108q12 -97 21 -148q6 -36 20 -108l21 -108q4 -20 9.5 -60t9.5 -60q1 -4 3.5 -24.5t6.5 -34t11 -27.5q3 31 9 84t7 61q1 20 3 61t4 61q0 8 8 56q0 4 2 18t2 21q-1 12 12 31q4 5 12.5 4.5t12.5 -6.5 q8 -16 9 -25q8 -33 13.5 -72.5t11 -85.5t10.5 -76q2 -15 20 -110q8 0 10 9q2 17 9.5 62.5t10.5 70.5q15 107 15 152q0 8 0.5 16t1.5 16t2.5 15.5t2.5 16t2 15.5q2 19 5.5 53t6.5 62.5t6 53.5q4 39 16 125q0 2 1 3q2 14 12 17t17 -5t4 -21q-7 -44 -16 -76q-6 -24 -11 -90 q-7 -87 -18 -149q-4 -38 -4 -59q-3 -70 -30 -262q-3 -17 -6.5 -49t-4.5 -42q0 -13 -1 -19q-2 -18 -11 -22t-23 7q-15 15 -21 49q-27 153 -34 234q-1 14 -3.5 30.5t-7 38.5t-7.5 37q-1 -7 -2 -13.5t-2 -10.5t-2 -8.5t-1 -7.5q-3 -37 -7 -111q-1 -13 -4.5 -46t-5 -50.5 t-5 -44.5t-7 -50t-8.5 -45q-12 -13 -26 -11t-19 20q-1 5 -2 16t-2 16q-3 17 -10.5 66.5t-12.5 76.5q-5 32 -15 89.5t-13 73.5q-9 57 -29 171q-6 33 -7 46q-12 74 -15 105q-4 36 -24 104z" />
<glyph unicode="x" horiz-adv-x="350" d="M40 -6q-2 8 5 18q6 14 12 40q2 6 5 18.5t5 17.5q2 8 2 11q10 31 23.5 70t24.5 70t24.5 70t23.5 70q0 2 1.5 6t1.5 6l-3 13q-24 72 -25 76q-14 57 -68 223q-8 21 -19 57l-6 20q-1 4 -1 11q0 14 8 17h6q12 0 18 -21q7 -33 34 -112q4 -11 7.5 -22.5t8 -26t7.5 -23.5l27 -92 q2 -13 13 -49q0 -16 10 -21q3 3 3 7q8 19 19 57t14 48q12 37 33 107.5t25 82.5l1 1l3 11q9 29 13 38q2 5 7 10t10 5q10 0 11.5 -13t-3.5 -21q-1 0 -1 -2v-2l-9 -28q-85 -265 -92 -288q-6 -18 -13 -41q-1 -2 -3.5 -8.5t-3.5 -10.5q2 -4 2 -6l3 -9t4 -9q19 -60 23 -81 q6 -26 20 -58l6 -17q4 -11 10.5 -27.5t12.5 -32t11 -28.5q5 -15 11.5 -32.5t15 -39t12.5 -33.5q5 -9 0.5 -20.5t-11.5 -11.5q-6 0 -9 3.5t-6 10.5t-4 9q-2 8 -15 44q-30 74 -42 112q-15 40 -30 91l-12 38q-3 12 -11 34q-1 2 -2 6t-2 6h-1q-5 0 -7 -7q-7 -20 -19 -57t-17 -52 l-9 -28q-34 -98 -48 -162q-7 -41 -25 -63l-1 -2q-3 3 -8.5 7.5t-8 7.5t-2.5 7z" />
<glyph unicode="y" horiz-adv-x="340" d="M40 783q0 3 0.5 6t1.5 6.5t1 5.5q20 5 24 -13q5 -20 12.5 -41.5t18 -46.5t15.5 -39q13 -34 61 -128q9 -19 19 -25q21 77 26 97q11 47 35 143q2 16 10 41q0 5 4 15q8 11 20 5q9 -4 6 -18q-4 -13 -8 -28.5t-8.5 -35t-7.5 -29.5q-4 -16 -10.5 -39.5t-11 -41t-10 -39 t-10.5 -39.5q-3 -15 -12 -52t-14 -64t-8 -53l-5 -25q-19 -82 -39 -209q-2 -14 -4 -20q-5 -17 -15 -51.5t-15 -51.5l-3 -14q-6 -11 -17 -10q-11 2 -11 14q-2 12 1 21q5 20 17 59t20.5 71t12.5 63q4 33 16.5 93t16.5 88q3 11 7 31.5t6 29.5l-20 35q-42 86 -63 131 q-13 31 -47 115q-5 11 -12 43z" />
<glyph unicode="z" horiz-adv-x="320" d="M55 46q16 35 32 117q5 18 22 90.5t30 111.5q7 22 18 62.5t16 57.5q3 11 11.5 35t11.5 35q4 12 36 131q2 10 6.5 28t6.5 25q2 5 6 30q-2 0 -9.5 2t-11.5 2q-10 0 -34 -4q-17 -4 -33.5 -5.5t-43 -1.5h-32.5q-15 0 -21 14q-4 7 -1 14.5t8 7.5q6 1 11 0q36 -9 93 -2q6 1 24 2 t28 3q7 1 21 3.5t17 3.5q17 2 25 -11q-3 -13 -10 -40t-10 -40q-4 -13 -15 -51.5t-17 -58.5q-15 -57 -23 -76q-8 -24 -21 -72.5t-21 -71.5q-28 -97 -51 -200q-20 -85 -27 -113q-1 -4 -3.5 -12t-3.5 -10q-7 -22 -3.5 -30t20.5 -7q58 0 109 4q6 0 16.5 -0.5t19.5 0t17 3.5 q5 3 13 -8q6 -6 0 -20q-4 -10 -13 -9q-40 6 -96 -3q-4 -2 -28.5 -0.5t-27.5 1.5q-5 0 -15 -0.5t-15 -0.5q-15 -2 -29 10q-1 4 -3 12.5t-3 13.5t-0.5 13t3.5 15z" />
<glyph unicode="{" horiz-adv-x="281" d="M42 379q5 9 13 10.5t16 -0.5q15 -3 45 10q0 17 -1 25q-5 17 -6.5 38t0 39t2.5 40t-1 41q-5 71 -9 94q-8 64 0 102q10 42 31 65q16 14 31 10l45 -9q10 -3 13 -6.5t2 -9.5q-2 -20 -20 -18q-18 6 -35.5 5.5t-23.5 -17.5q-21 -46 -13 -86q15 -90 10 -162q-1 -48 0 -97 q0 -6 5 -36q5 -6 3.5 -14t-3 -12t-5.5 -11t-6 -11q24 -42 19 -113q-1 -28 -2.5 -85.5t-2.5 -86.5q-1 -9 -1.5 -19.5t-1 -22t-0.5 -18.5t2.5 -14t6.5 -14t5 -12q8 0 21.5 -1.5t20.5 -1.5q5 0 13.5 3.5t12.5 4t11 -5.5q3 -8 0.5 -18.5t-7.5 -14.5q-8 -7 -16.5 -8t-21 1 t-18.5 2q-34 -2 -50.5 23t-11.5 58q2 20 2 27q0 38 2.5 114t2.5 113q0 11 -7 48q-6 20 -26 20q-4 0 -14.5 -0.5t-16.5 -0.5q-19 17 -15 32z" />
<glyph unicode="|" horiz-adv-x="190" d="M80 -70v151q0 22 1 47t2.5 55.5t2.5 47.5q12 121 8 241q-2 12 -2 92.5v92.5v74t-5 104q-1 1 -1 5v5q13 15 25 6t12 -26q0 -3 3 -45q0 -128 1 -189q0 -43 0.5 -129.5t-0.5 -130.5q-9 -174 -9 -178q-2 -18 -2 -81q1 -19 2.5 -56.5t1.5 -56.5q0 -3 -0.5 -12t-1.5 -12 q-1 -11 -7.5 -15.5t-14.5 -0.5q-3 1 -8.5 5.5t-7.5 5.5z" />
<glyph unicode="}" horiz-adv-x="313" d="M78 805q-3 8 -0.5 18.5t7.5 14.5q8 7 16.5 7.5t21 -1.5t18.5 -2q34 2 50.5 -23t11.5 -58q-3 -15 -3 -27q0 -38 -3 -114t-3 -113l6 -48q6 -20 26 -20h31q7 -6 9.5 -8.5t5 -9.5t0.5 -14q-5 -9 -13 -10.5t-16 0.5q-15 4 -45 -9q0 -17 1 -25q8 -18 5 -77.5t-1 -80.5 q2 -63 8 -94q7 -61 -1 -102q-10 -42 -31 -65q-16 -14 -31 -10l-45 9q-10 4 -13 7.5t-2 9.5q1 9 6.5 14t13.5 3q18 -6 35.5 -5.5t23.5 17.5q20 46 14 86q-15 91 -9 162q1 32 1 97q0 6 -5 36q-5 6 -3.5 14t3 12t5.5 11t6 11q-24 40 -18 113l6 172q1 10 2 30t2 30q1 9 -6 22 t-8 18q-8 0 -21.5 1.5t-20.5 1.5q-4 0 -12 -4q-19 -7 -25 3z" />
<glyph unicode="&#xa1;" horiz-adv-x="182" d="M60 829v4t1 5q2 9 9 15.5t13 4.5q12 0 20.5 -8t8.5 -21q0 -29 -25 -29q-26 0 -27 29zM68 26q0 80 5.5 228.5t6.5 169.5q2 16 0 33q-4 136 -7 205q0 22 1 33q2 12 7.5 14.5t23.5 0.5q2 -8 1 -9q-2 -40 3 -237q2 -34 0 -44q-4 -27 -5 -56.5t-0.5 -66t-0.5 -56.5 q-1 -21 -4 -190q-2 -50 8 -84q4 -12 -7 -18q-7 -6 -15.5 -3.5t-9.5 11.5q-7 40 -7 69z" />
<glyph unicode="&#xa8;" horiz-adv-x="600" d="M182 778q0 10 20.5 19.5t29.5 6.5q15 -6 15 -28q-1 -2 -1.5 -6.5t-0.5 -6.5q-2 -14 -11 -22t-20 -6q-14 3 -24 16.5t-8 26.5zM357 780q4 9 21.5 18.5t27.5 8.5q15 -11 15 -31l-1 -8q-2 -11 -6.5 -20t-7.5 -12l-4 -4q-15 3 -26.5 10t-16 12.5t-1.5 6.5q-2 19 -1 19z" />
<glyph unicode="&#xaa;" d="M41 657q0 10 -0.5 26.5t-0.5 25.5t1 21.5t3.5 19.5t7 14t13 11t19.5 6q23 3 42 -9t29.5 -29.5t17.5 -38.5q3 -16 8.5 -45.5t6.5 -35.5q5 -36 -17 -38q-14 0 -18 10v18q-12 -23 -44 -18q-6 0 -11.5 1t-7.5 1q-42 15 -49 60zM70 663q4 -20 27 -30.5t37 6.5q9 17 9.5 41.5 t-12 46.5t-31.5 22q-7 -1 -14 -5t-8 -6q-8 -9 -9.5 -39t1.5 -36z" />
<glyph unicode="&#xad;" horiz-adv-x="203" d="M40 341q1 3 5 14q42 2 55 2q38 2 58 2q17 0 27.5 -6t6.5 -20q-2 -6 -7 -9t-10 -1q-37 12 -105 0q-14 -3 -23 2t-7 16z" />
<glyph unicode="&#xb0;" horiz-adv-x="190" d="M31 677q0 65 4 73q4 11 7 15.5t11 9t21 6.5q37 5 62.5 -18t31.5 -53q1 -16 -10 -45t-22 -42q-13 -12 -37 -8q-6 0 -11.5 1t-7.5 1q-42 15 -49 60zM60 683q4 -20 27 -30.5t37 6.5l8 15q11 21 -2 48t-40 27q-12 -1 -22 -11q-16 -28 -8 -55z" />
<glyph unicode="&#xb2;" horiz-adv-x="320" d="M43 618q4 23 20.5 41.5t33.5 28t31 23t15 29.5q1 14 -5 23t-19 7q-34 -4 -40 -33q0 -2 -1 -6.5t-1.5 -8.5t-2 -8t-3 -6t-4.5 -1q-19 0 -19 8v2q4 18 7.5 28.5t10.5 22.5t19 18.5t30 8.5q18 3 32 -5t19 -23q4 -24 4 -36.5t-11 -25t-21.5 -19.5t-26.5 -19.5t-27 -25.5 l-6 -12q2 -4 14 -6h29q5 0 13 0.5t12 0.5q18 0 18 -5q0 -1 1.5 -6.5t3 -10.5t0.5 -5q-4 -4 -13 -4q-5 0 -13.5 -0.5t-16 -0.5t-14.5 1q-19 2 -54 -2q-1 -1 -6 -1q-14 3 -9 28z" />
<glyph unicode="&#xb3;" horiz-adv-x="311" d="M47 652q0 6 11.5 7.5t13.5 -5.5l3 -20q6 -26 40 -32q14 -3 20 5.5t7 22.5q0 7 -1.5 12.5t-2.5 8.5t-5 7l-5.5 5.5t-8.5 6.5t-9 7q-8 6 -6 12q2 8 12.5 15.5t19.5 16.5t9 23t-6.5 22.5t-19.5 5.5q-34 -5 -37 -36l-3 -16q-2 -6 -7 -6q-18 -1 -20 7v2q5 34 16.5 50.5 t44.5 23.5q19 4 34 -3t19 -21q4 -17 5 -28.5t-3.5 -21t-6.5 -12.5t-12.5 -12t-11.5 -10q45 -30 28 -87q-4 -14 -20.5 -20t-34.5 -2q-24 4 -37.5 15.5t-17.5 22.5t-8 34z" />
<glyph unicode="&#xb4;" horiz-adv-x="600" d="M220 798q-1 3 -1.5 6t0 5t2.5 4t2.5 3.5t4 3t4 2t4.5 2.5l4 1q6 2 36 13t46 17q9 4 26 11.5t21 9.5q12 6 19 -5q10 -18 -4 -27q-1 0 -4.5 -1.5t-5.5 -2.5q-69 -15 -133 -47q-3 -2 -12 -4q-1 1 -3.5 2.5t-4 3t-1.5 3.5z" />
<glyph unicode="&#xb8;" horiz-adv-x="600" d="M291 33q11 4 16.5 5t10 -2t6.5 -10q8 -37 5 -62v-25q0 -2 3 -35q0 -28 -20 -28q-22 0 -17 29q0 8 2 30v31q0 1 -1 8.5t-1 9.5q0 8 -1.5 24t-2.5 25z" />
<glyph unicode="&#xb9;" horiz-adv-x="195" d="M41 718q1 1 2 4.5t3 5.5l27 22q8 6 21 19.5t18 18.5q10 10 21 12q3 0 6 -1l7.5 -2.5t6.5 -2.5v-171q0 -35 -20 -35q-15 2 -18 13l3 127q0 2 -1.5 6.5t-1.5 7.5l-49 -37q-17 -1 -25 13z" />
<glyph unicode="&#xba;" horiz-adv-x="220" d="M41 657q0 10 -0.5 30.5t-0.5 29.5t2 23t6.5 20.5t13.5 12.5t22 8q37 5 62.5 -26.5t28.5 -64.5q1 -17 -8.5 -46t-20.5 -41q-13 -12 -37 -8q-6 0 -11.5 1t-7.5 1q-42 15 -49 60zM70 663q4 -20 27 -30.5t37 6.5q17 22 6 66t-40 44q-17 -2 -22 -11q-8 -9 -9.5 -39t1.5 -36z " />
<glyph unicode="&#xbf;" horiz-adv-x="284" d="M23 116q2 24 20 70q16 38 46 107t42 97q12 27 12 50q1 8 5.5 31.5t4.5 37.5q2 88 2 131q0 8 -0.5 25t-0.5 26q0 20 13 18q26 3 21 -53q1 0 0 -26v-25q0 -11 -0.5 -45.5t-1.5 -53.5q-4 -93 -46 -179l-72 -164q-25 -59 -3 -136q7 -25 34.5 -39.5t53.5 -6.5q65 16 66 84 q0 13 2.5 17.5t15.5 17.5q17 -8 17 -19q4 -49 -19.5 -84t-71.5 -48q-45 -10 -92 17q-23 11 -32 42q-21 61 -16 108zM126 821q8 29 39 23q10 -2 14 -5t17 -18q-4 -19 -21 -25q-23 -6 -35 -1q-19 7 -14 26z" />
<glyph unicode="&#xc0;" d="M40 27l9 47q3 13 7.5 39.5t6.5 39.5l13 79q6 42 17.5 116t20.5 136t15 117q3 21 13 142q2 31 26 45q14 10 22.5 -7.5t8.5 -33.5q-2 -23 7 -83q3 -24 7.5 -68.5t6.5 -58.5q7 -59 26 -203l24 -170q3 -19 11 -57q1 -7 4.5 -22t5.5 -24t3.5 -22t1.5 -25q-1 -7 -6.5 -11.5 t-11.5 -3.5q-7 0 -12 4.5t-6 10.5q-3 24 -7 65q0 2 -1.5 12t-2.5 17q-31 6 -84 -0.5t-74 -5.5l-6 -25q-3 -16 -10 -58q-4 -18 -21 -14t-14 22zM59 904q-7 6 -7.5 15t6.5 16t15 3q18 -9 123 -54q26 -11 19 -28l-9 -9q-8 2 -11 4q-62 34 -127 49q-1 0 -4 2t-5 2zM97 145 q17 -7 22 -8q11 -1 33 1l87 9v17q-6 43 -17.5 119t-20.5 139.5t-15 120.5q0 3 -3.5 44t-5.5 62q0 2 -8 23q-13 -108 -13 -111q-2 -13 -7 -38t-7 -37l-18 -138q-2 -14 -9 -58t-10 -68q-1 -8 -4.5 -25t-4.5 -25t1 -27z" />
<glyph unicode="&#xc1;" d="M40 27l9 47q3 13 7.5 39.5t6.5 39.5l13 79q6 42 17.5 116t20.5 136t15 117q3 21 13 142q2 31 26 45q14 10 22.5 -7.5t8.5 -33.5q-2 -23 7 -83q3 -24 7.5 -68.5t6.5 -58.5q7 -59 26 -203l24 -170q3 -19 11 -57q1 -7 4.5 -22t5.5 -24t3.5 -22t1.5 -25q-1 -7 -6.5 -11.5 t-11.5 -3.5q-7 0 -12 4.5t-6 10.5q-3 24 -7 65q0 2 -1.5 12t-2.5 17q-31 6 -84 -0.5t-74 -5.5l-6 -25q-3 -16 -10 -58q-4 -18 -21 -14t-14 22zM97 145q17 -7 22 -8q11 -1 33 1l87 9v17q-6 43 -17.5 119t-20.5 139.5t-15 120.5q0 3 -3.5 44t-5.5 62q0 2 -8 23 q-13 -108 -13 -111q-2 -13 -7 -38t-7 -37l-18 -138q-2 -14 -9 -58t-10 -68q-1 -8 -4.5 -25t-4.5 -25t1 -27zM127 858q-1 3 -1.5 5.5t0 4.5l1 4t2.5 3.5t3 2.5t4 2t4 1.5t3.5 2t3.5 1.5q6 2 36 13t46 17q9 4 26 11.5t21 9.5q12 6 19 -5q4 -7 3 -15t-7 -12q-1 0 -4.5 -1.5 t-5.5 -2.5q-69 -15 -133 -47q-3 -2 -12 -4q-1 1 -3.5 2.5t-4 3t-1.5 3.5z" />
<glyph unicode="&#xc2;" d="M40 27l9 47q3 13 7.5 39.5t6.5 39.5l13 79q6 42 17.5 116t20.5 136t15 117q3 21 13 142q2 31 26 45q14 10 22.5 -7.5t8.5 -33.5q-2 -23 7 -83q3 -24 7.5 -68.5t6.5 -58.5q7 -59 26 -203l24 -170q3 -19 11 -57q1 -7 4.5 -22t5.5 -24t3.5 -22t1.5 -25q-1 -7 -6.5 -11.5 t-11.5 -3.5q-7 0 -12 4.5t-6 10.5q-3 24 -7 65q0 2 -1.5 12t-2.5 17q-31 6 -84 -0.5t-74 -5.5l-6 -25q-3 -16 -10 -58q-4 -18 -21 -14t-14 22zM46 859q-2 10 6 16q10 8 34 20l82 39q13 6 24 -2l76 -51q14 -9 3 -26q-10 -11 -23 -3q-26 17 -53 38q-20 16 -40 4 q-10 -6 -39.5 -19.5t-43.5 -25.5q-1 -1 -3 -1.5t-5 -1t-5 -1.5q-1 2 -6.5 6.5t-6.5 7.5zM97 145q17 -7 22 -8q11 -1 33 1l87 9v17q-6 43 -17.5 119t-20.5 139.5t-15 120.5q0 3 -3.5 44t-5.5 62q0 2 -8 23q-13 -108 -13 -111q-2 -13 -7 -38t-7 -37l-18 -138q-2 -14 -9 -58 t-10 -68q-1 -8 -4.5 -25t-4.5 -25t1 -27z" />
<glyph unicode="&#xc3;" d="M39 883q23 28 56.5 29.5t64.5 -12.5q61 -18 106 26q1 -1 3.5 -2.5t4.5 -3t4 -3.5q6 -8 4.5 -17.5t-8.5 -11.5q-8 -3 -22 -9t-25.5 -10t-22.5 -4q-22 0 -26 1l-63 15q-30 7 -49 -12q-11 -11 -15 -9t-12 23zM40 27l9 47q3 13 7.5 39.5t6.5 39.5l13 79q6 42 17.5 116 t20.5 136t15 117q3 21 13 142q2 31 26 45q14 10 22.5 -7.5t8.5 -33.5q-2 -23 7 -83q3 -24 7.5 -68.5t6.5 -58.5q7 -59 26 -203l24 -170q3 -19 11 -57q1 -7 4.5 -22t5.5 -24t3.5 -22t1.5 -25q-1 -7 -6.5 -11.5t-11.5 -3.5q-7 0 -12 4.5t-6 10.5q-3 24 -7 65q0 2 -1.5 12 t-2.5 17q-31 6 -84 -0.5t-74 -5.5l-6 -25q-3 -16 -10 -58q-4 -18 -21 -14t-14 22zM97 145q17 -7 22 -8q11 -1 33 1l87 9v17q-6 43 -17.5 119t-20.5 139.5t-15 120.5q0 3 -3.5 44t-5.5 62q0 2 -8 23q-13 -108 -13 -111q-2 -13 -7 -38t-7 -37l-18 -138q-2 -14 -9 -58t-10 -68 q-1 -8 -4.5 -25t-4.5 -25t1 -27z" />
<glyph unicode="&#xc4;" d="M40 27l9 47q3 13 7.5 39.5t6.5 39.5l13 79q6 42 17.5 116t20.5 136t15 117q3 21 13 142q2 31 26 45q14 10 22.5 -7.5t8.5 -33.5q-2 -23 7 -83q3 -24 7.5 -68.5t6.5 -58.5q7 -59 26 -203l24 -170q3 -19 11 -57q1 -7 4.5 -22t5.5 -24t3.5 -22t1.5 -25q-1 -7 -6.5 -11.5 t-11.5 -3.5q-7 0 -12 4.5t-6 10.5q-3 24 -7 65q0 2 -1.5 12t-2.5 17q-31 6 -84 -0.5t-74 -5.5l-6 -25q-3 -16 -10 -58q-4 -18 -21 -14t-14 22zM72 883v3q3 7 18 13.5t22 4.5q12 -4 12 -22q-1 -2 -1.5 -5.5t-0.5 -5.5q-3 -19 -16.5 -21.5t-25 8.5t-8.5 25zM97 145 q17 -7 22 -8q11 -1 33 1l87 9v17q-6 43 -17.5 119t-20.5 139.5t-15 120.5q0 3 -3.5 44t-5.5 62q0 2 -8 23q-13 -108 -13 -111q-2 -13 -7 -38t-7 -37l-18 -138q-2 -14 -9 -58t-10 -68q-1 -8 -4.5 -25t-4.5 -25t1 -27zM212 870q-1 15 0 15q3 7 17 14.5t22 7.5q12 -9 12 -25 l-1 -7q-1 -8 -4.5 -15t-6.5 -10l-3 -3q-29 5 -36 20q-1 3 0 3z" />
<glyph unicode="&#xc5;" d="M40 27l9 47q3 13 7.5 39.5t6.5 39.5l13 79q6 42 17.5 116t20.5 136t15 117q3 21 13 142q2 31 26 45q14 10 22.5 -7.5t8.5 -33.5q-2 -23 7 -83q3 -24 7.5 -68.5t6.5 -58.5q7 -59 26 -203l24 -170q3 -19 11 -57q1 -7 4.5 -22t5.5 -24t3.5 -22t1.5 -25q-1 -7 -6.5 -11.5 t-11.5 -3.5q-7 0 -12 4.5t-6 10.5q-3 24 -7 65q0 2 -1.5 12t-2.5 17q-31 6 -84 -0.5t-74 -5.5l-6 -25q-3 -16 -10 -58q-4 -18 -21 -14t-14 22zM97 145q17 -7 22 -8q11 -1 33 1l87 9v17q-6 43 -17.5 119t-20.5 139.5t-15 120.5q0 3 -3.5 44t-5.5 62q0 2 -8 23 q-13 -108 -13 -111q-2 -13 -7 -38t-7 -37l-18 -138q-2 -14 -9 -58t-10 -68q-1 -8 -4.5 -25t-4.5 -25t1 -27zM128 882v12.5v12t0.5 10t1.5 9t2.5 7t4.5 6.5t7 3.5t10 2.5q22 3 37.5 -11t20.5 -32q0 -7 -3 -18t-8 -21t-9 -14q-9 -9 -23 -5q-3 0 -6.5 0.5t-4.5 0.5 q-27 10 -30 37zM151 888q2 -9 13 -14t17 3l4 6q3 5 2 11t-3 11.5t-7.5 9.5t-11.5 4q-2 0 -4.5 -1.5t-4 -2.5l-1.5 -1q-7 -12 -4 -26z" />
<glyph unicode="&#xc7;" d="M60 172h2q-2 38 -2 56q0 101 1 150q1 32 1.5 75t1.5 84t2 75v16.5v16.5t-0.5 17t-0.5 18q0 6 2 19.5t3 20.5q2 40 44 71q25 18 58 18t51 -22q2 -2 6 -8l6 -9t5.5 -8.5t5.5 -10t3.5 -10t2.5 -11.5q3 -22 3 -64q1 -10 -6.5 -14.5t-16 -1t-9.5 13.5q-1 14 -1 38 q-1 36 -28 60q-29 20 -57 1q-29 -19 -33 -43q-9 -47 -6 -85q1 -9 1 -19v-20t-0.5 -19t-1.5 -20t-1 -19q-2 -72 -4 -109q-2 -23 -2.5 -50.5t0 -49t1.5 -51t1 -49.5q0 -15 -1 -43.5t-1 -42.5q0 -22 3 -40q4 -57 56 -75q58 -16 72 34q3 15 5 46q1 6 6 71q1 10 6.5 15t12.5 3 q9 -1 15.5 -9t2.5 -17q-7 -16 -9 -46.5t-5 -41.5q-1 -6 -2.5 -17t-3.5 -16q-12 -50 -60 -60l1 -10q3 -21 1 -34v-25q0 -2 3 -35q0 -28 -20 -28q-10 0 -14.5 8.5t-2.5 20.5q0 5 0.5 14.5t0.5 15.5v31q1 2 0 9.5t-1 8.5l-2 24q-35 6 -64 36.5t-29 69.5q1 13 -2 76z" />
<glyph unicode="&#xc8;" d="M54 27v5l0.5 1t0.5 2q6 46 4 126q0 9 2 29l2 20v25q2 56 6 110q3 28 -1 63q-4 69 -2 205v23q0 64 -5 124q0 5 -1 8q0 3 -0.5 9t-0.5 8q1 5 5.5 11t8.5 6h1q9 0 21 3q4 0 12 0.5t12 0.5h10q27 -3 56 -3q8 -1 26 -1h5q2 0 7.5 -1t7 -1.5l4.5 -1.5t5 -3t4 -5 q7 -11 0.5 -21.5t-15.5 -10.5h-5q-21 7 -51 7h-24q-14 -2 -29 0q-2 0 -4 0.5l-2 0.5q-9 0 -16 -5v-113q0 -21 -1 -33v-74q0 -34 1 -51v-19q12 0 26 1t28.5 2.5t24.5 2.5q4 0 7 1q2 0 6 0.5t5 0.5q13 0 24 -11v-2q-1 -9 -2.5 -14t-4 -10.5t-6.5 -8t-10 -2.5t-20.5 2.5 t-22.5 2.5q-23 0 -55 -9v-3q5 -47 4.5 -72t-4 -71.5t-3.5 -73.5v-165h13q22 2 37 4q6 0 9 1h35q22 0 35 4l15 3h5q13 0 17 -13.5t-4 -23.5q-5 -13 -17 -13q-2 0 -7.5 2t-8.5 2q-13 0 -16 -3q-2 0 -6 -1.5t-6 -1.5t-2 1q-6 1 -20 1q-10 0 -31.5 -2t-31.5 -2h-5q-15 0 -36 3 q-6 1 -11 8.5t-5 15.5zM67 904q-7 6 -7.5 15t6.5 16t15 3q18 -9 123 -54q4 -2 5.5 -2.5t5.5 -2.5t5 -4t3 -5t2 -6.5t-2 -7.5q0 -2 -1.5 -3.5t-4 -3t-3.5 -2.5q-8 2 -11 4q-62 34 -127 49q-2 0 -5 2t-4 2z" />
<glyph unicode="&#xc9;" d="M54 27v5l0.5 1t0.5 2q6 46 4 126q0 9 2 29l2 20v25q2 56 6 110q3 28 -1 63q-4 69 -2 205v23q0 64 -5 124q0 5 -1 8q0 3 -0.5 9t-0.5 8q1 5 5.5 11t8.5 6h1q9 0 21 3q4 0 12 0.5t12 0.5h10q27 -3 56 -3q8 -1 26 -1h5q2 0 7.5 -1t7 -1.5l4.5 -1.5t5 -3t4 -5 q7 -11 0.5 -21.5t-15.5 -10.5h-5q-21 7 -51 7h-24q-14 -2 -29 0q-2 0 -4 0.5l-2 0.5q-9 0 -16 -5v-113q0 -21 -1 -33v-74q0 -34 1 -51v-19q12 0 26 1t28.5 2.5t24.5 2.5q4 0 7 1q2 0 6 0.5t5 0.5q13 0 24 -11v-2q-1 -9 -2.5 -14t-4 -10.5t-6.5 -8t-10 -2.5t-20.5 2.5 t-22.5 2.5q-23 0 -55 -9v-3q5 -47 4.5 -72t-4 -71.5t-3.5 -73.5v-165h13q22 2 37 4q6 0 9 1h35q22 0 35 4l15 3h5q13 0 17 -13.5t-4 -23.5q-5 -13 -17 -13q-2 0 -7.5 2t-8.5 2q-13 0 -16 -3q-2 0 -6 -1.5t-6 -1.5t-2 1q-6 1 -20 1q-10 0 -31.5 -2t-31.5 -2h-5q-15 0 -36 3 q-6 1 -11 8.5t-5 15.5zM82 858q-1 3 -1.5 5.5t0 4.5l1 4t2.5 3.5t3 2.5t4 2t4 1.5t3.5 2t3.5 1.5q10 4 26 9.5t30 10.5t26 10q7 3 15 6.5t17 7.5t15 7q12 6 19 -5q4 -7 3 -15t-7 -12q-1 0 -4.5 -1.5t-5.5 -2.5q-69 -15 -133 -47q-3 -2 -12 -4q-1 1 -3.5 2.5t-4 3t-1.5 3.5z " />
<glyph unicode="&#xca;" d="M39 875q-2 10 6 16q10 8 34 20l82 39q13 6 24 -2l76 -51q14 -9 3 -26q-10 -11 -23 -3q-26 17 -53 38q-20 16 -40 4q-10 -6 -39.5 -19.5t-43.5 -25.5q-1 -1 -3 -1.5t-5 -1t-5 -1.5q-1 2 -6.5 6.5t-6.5 7.5zM54 27v5l0.5 1t0.5 2q6 46 4 126q0 9 2 29l2 20v25q2 56 6 110 q3 28 -1 63q-4 69 -2 205v23q0 64 -5 124q0 5 -1 8q0 3 -0.5 9t-0.5 8q1 5 5.5 11t8.5 6h1q9 0 21 3q4 0 12 0.5t12 0.5h10q27 -3 56 -3q8 -1 26 -1h5q2 0 7.5 -1t7 -1.5l4.5 -1.5t5 -3t4 -5q7 -11 0.5 -21.5t-15.5 -10.5h-5q-21 7 -51 7h-24q-14 -2 -29 0q-2 0 -4 0.5 l-2 0.5q-9 0 -16 -5v-113q0 -21 -1 -33v-74q0 -34 1 -51v-19q12 0 26 1t28.5 2.5t24.5 2.5q4 0 7 1q2 0 6 0.5t5 0.5q13 0 24 -11v-2q-1 -9 -2.5 -14t-4 -10.5t-6.5 -8t-10 -2.5t-20.5 2.5t-22.5 2.5q-23 0 -55 -9v-3q5 -47 4.5 -72t-4 -71.5t-3.5 -73.5v-165h13q22 2 37 4 q6 0 9 1h35q22 0 35 4l15 3h5q13 0 17 -13.5t-4 -23.5q-5 -13 -17 -13q-2 0 -7.5 2t-8.5 2q-13 0 -16 -3q-2 0 -6 -1.5t-6 -1.5t-2 1q-6 1 -20 1q-10 0 -31.5 -2t-31.5 -2h-5q-15 0 -36 3q-6 1 -11 8.5t-5 15.5z" />
<glyph unicode="&#xcb;" d="M54 27v5l0.5 1t0.5 2q6 46 4 126q0 9 2 29l2 20v25q2 56 6 110q3 28 -1 63q-4 69 -2 205v23q0 64 -5 124q0 5 -1 8q0 3 -0.5 9t-0.5 8q1 5 5.5 11t8.5 6h1q9 0 21 3q4 0 12 0.5t12 0.5h10q27 -3 56 -3q8 -1 26 -1h5q2 0 7.5 -1t7 -1.5l4.5 -1.5t5 -3t4 -5 q7 -11 0.5 -21.5t-15.5 -10.5h-5q-21 7 -51 7h-24q-14 -2 -29 0q-2 0 -4 0.5l-2 0.5q-9 0 -16 -5v-113q0 -21 -1 -33v-74q0 -34 1 -51v-19q12 0 26 1t28.5 2.5t24.5 2.5q4 0 7 1q2 0 6 0.5t5 0.5q13 0 24 -11v-2q-1 -9 -2.5 -14t-4 -10.5t-6.5 -8t-10 -2.5t-20.5 2.5 t-22.5 2.5q-23 0 -55 -9v-3q5 -47 4.5 -72t-4 -71.5t-3.5 -73.5v-165h13q22 2 37 4q6 0 9 1h35q22 0 35 4l15 3h5q13 0 17 -13.5t-4 -23.5q-5 -13 -17 -13q-2 0 -7.5 2t-8.5 2q-13 0 -16 -3q-2 0 -6 -1.5t-6 -1.5t-2 1q-6 1 -20 1q-10 0 -31.5 -2t-31.5 -2h-5q-15 0 -36 3 q-6 1 -11 8.5t-5 15.5zM67 910v3q2 4 9.5 9t16.5 7.5t14 1.5q12 -5 12 -22q-1 -2 -1.5 -5.5t-0.5 -5.5q-3 -19 -16.5 -21.5t-25 8.5t-8.5 25zM207 897q-1 15 0 15q3 7 17 14.5t22 7.5q12 -9 12 -25l-1 -7q-1 -8 -4.5 -15t-6.5 -10l-3 -3q-12 2 -21.5 7.5t-13 10t-1.5 5.5z " />
<glyph unicode="&#xcc;" horiz-adv-x="187" d="M-31 904q-7 6 -7.5 15t6.5 16t15 3q18 -9 123 -54q26 -11 19 -28l-9 -9q-8 2 -11 4q-62 34 -127 49q-1 0 -4 2t-5 2zM96 145q-1 42 6 128q9 118 4 190q-2 25 -2 90.5t-1 85.5q-1 13 -1 43.5t-1 55.5t-5 45q-1 3 1 10q12 13 23 5q12 -10 12 -51l3 -155q3 -180 2 -231 q-1 -25 -4 -75.5t-4 -67.5v-19.5v-27v-29.5q0 -10 0.5 -25t1 -28.5t1.5 -30t1 -24.5q0 -13 -1 -19q-1 -7 -4 -10.5t-9.5 -2.5t-9.5 2t-11 4q0 63 -2 137z" />
<glyph unicode="&#xcd;" horiz-adv-x="185" d="M82 145q-1 42 6 128q9 118 4 190q-1 20 -1.5 53.5t-0.5 69t-1 53.5q-1 13 -1 43.5t-1 55.5t-5 45q-1 3 1 10q12 13 23 5q12 -10 12 -51l3 -155q3 -181 2 -231q-1 -25 -4 -75.5t-4 -67.5v-19.5v-27v-29.5q0 -12 0.5 -32t2 -43.5t1.5 -32.5q0 -13 -1 -19q-1 -7 -4 -10.5 t-9.5 -2.5t-9.5 2t-11 4q0 63 -2 137zM84 858q-5 7 -0.5 13t7.5 8t10 5q2 1 3 1q6 2 36 13t46 17q9 4 26 11.5t21 9.5q12 6 19 -5q4 -7 3 -15t-7 -12q-1 0 -4.5 -1.5t-5.5 -2.5q-69 -15 -133 -47q-3 -2 -12 -4q-1 1 -3.5 2.5t-4 3t-1.5 3.5z" />
<glyph unicode="&#xce;" horiz-adv-x="191" d="M-28 832q-2 10 6 16q10 8 34 20l82 39q13 6 24 -2l76 -51q14 -9 3 -26q-10 -11 -23 -3q-26 17 -53 38q-20 16 -40 4q-10 -6 -39.5 -19.5t-43.5 -25.5q-1 -1 -3 -1.5t-5 -1t-5 -1.5q-1 2 -6.5 6.5t-6.5 7.5zM80 145q-1 42 6 128q9 118 4 190q-1 20 -1.5 53.5t-0.5 69 t-1 53.5q-1 13 -1 43.5t-1 55.5t-5 45q-1 3 1 10q12 13 23 5q12 -10 12 -51l3 -155q3 -181 2 -231q-1 -25 -4 -75.5t-4 -67.5v-19.5v-27v-29.5q0 -12 0.5 -32t2 -43.5t1.5 -32.5q0 -13 -1 -19q-1 -7 -4 -10.5t-9.5 -2.5t-9.5 2t-11 4q0 63 -2 137z" />
<glyph unicode="&#xcf;" horiz-adv-x="193" d="M2 891v3q3 7 18 13.5t22 4.5q12 -4 12 -22q-1 -2 -1.5 -5.5t-0.5 -5.5q-3 -19 -16.5 -21.5t-25 8.5t-8.5 25zM77 145q-1 42 6 128q9 118 4 190q-1 20 -1.5 53.5t-0.5 69t-1 53.5q-1 13 -1 43.5t-1 55.5t-5 45q-1 3 1 10q12 13 23 5q12 -10 12 -51l3 -155q3 -181 2 -231 q-1 -25 -4 -75.5t-4 -67.5v-19.5v-27v-29.5q0 -12 0.5 -32t2 -43.5t1.5 -32.5q0 -13 -1 -19q-1 -7 -4 -10.5t-9.5 -2.5t-9.5 2t-11 4q0 63 -2 137zM142 878q-1 15 0 15q3 7 17 14.5t22 7.5q12 -9 12 -25l-1 -7q-1 -8 -4.5 -15t-6.5 -10l-3 -3q-29 5 -36 20q-1 3 0 3z" />
<glyph unicode="&#xd2;" horiz-adv-x="333" d="M40 565q8 73 14 113q7 38 37 87q12 19 38 32q2 1 5 1t5 0.5t3 2.5q7 8 16.5 10t13.5 1t18 -5q35 -10 57 -24q49 -32 51 -100q2 -76 2 -226q2 -162 0 -242q-3 -83 -19 -146q-9 -36 -37.5 -59t-61.5 -20q-48 6 -85 34t-37 74v102q-1 17 -6.5 131.5t-8.5 170.5q0 9 -3 30.5 t-2 32.5zM67 904q-7 6 -7.5 15t6.5 16t15 3q18 -9 123 -54q4 -2 5.5 -2.5t5.5 -2.5t5 -4t3 -5t2 -6.5t-2 -7.5q0 -2 -1.5 -3.5t-4 -3t-3.5 -2.5q-8 2 -11 4q-62 34 -127 49l-5 2.5t-4 1.5zM76 509v-11t1 -11q1 -23 7.5 -127t6.5 -161v-89q0 -72 94 -84q24 -4 35 9 q35 37 39 74q1 14 5 42t6 50t0 43q-1 3 -1 11q0 15 1.5 41.5t1.5 48.5t-3 42v102q2 64 1 98q0 11 -2 33.5t-2 30.5v37q0 17 -5.5 30t-17.5 23.5t-20.5 16t-25.5 14.5l-6 3q-4 2 -13 0q-4 -1 -9.5 -3t-10.5 -4.5t-9 -3.5q-24 -5 -40.5 -31t-21.5 -56q-23 -106 -11 -168z" />
<glyph unicode="&#xd3;" horiz-adv-x="333" d="M40 565q8 73 14 113q7 38 37 87q12 19 38 32q2 1 5 1t5 0.5t3 2.5q7 8 16.5 10t13.5 1t18 -5q35 -10 57 -24q49 -32 51 -100q2 -76 2 -226q2 -162 0 -242q-3 -83 -19 -146q-9 -36 -37.5 -59t-61.5 -20q-48 6 -85 34t-37 74v102q-1 17 -6.5 131.5t-8.5 170.5q0 9 -3 30.5 t-2 32.5zM76 509v-11t1 -11q1 -23 7.5 -127t6.5 -161v-89q0 -72 94 -84q24 -4 35 9q35 37 39 74q1 14 5 42t6 50t0 43q-1 3 -1 11q0 15 1.5 41.5t1.5 48.5t-3 42v102q2 64 1 98q0 11 -2 33.5t-2 30.5v37q0 17 -5.5 30t-17.5 23.5t-20.5 16t-25.5 14.5l-6 3q-4 2 -13 0 q-4 -1 -9.5 -3t-10.5 -4.5t-9 -3.5q-24 -5 -40.5 -31t-21.5 -56q-23 -106 -11 -168zM122 858q-1 3 -1.5 6t0 5t2.5 4t2.5 3.5t4 3t4 2t4.5 2.5l4 1q6 2 36 13t46 17q9 4 26 11.5t21 9.5q12 6 19 -5q10 -18 -4 -27q-1 0 -4.5 -1.5t-5.5 -2.5q-69 -15 -133 -47q-3 -2 -12 -4 q-1 1 -3.5 2.5t-4 3t-1.5 3.5z" />
<glyph unicode="&#xd4;" horiz-adv-x="333" d="M40 565q8 73 14 113q7 38 37 87q12 19 38 32q2 1 5 1t5 0.5t3 2.5q7 8 16.5 10t13.5 1t18 -5q35 -10 57 -24q49 -32 51 -100q2 -76 2 -226q2 -162 0 -242q-3 -83 -19 -146q-9 -36 -37.5 -59t-61.5 -20q-48 6 -85 34t-37 74v102q-1 17 -6.5 131.5t-8.5 170.5q0 9 -3 30.5 t-2 32.5zM69 857q-2 10 6 16q10 8 34 20l82 39q13 6 24 -2l76 -51q6 -4 7 -11.5t-4 -14.5q-10 -11 -23 -3q-26 17 -53 38q-20 16 -40 4q-10 -7 -27 -14t-31.5 -14.5t-24.5 -16.5q-1 -1 -2.5 -1.5t-3 -0.5t-3.5 -0.5t-4 -1.5q-1 2 -6.5 6.5t-6.5 7.5zM76 509v-11t1 -11 q1 -23 7.5 -127t6.5 -161v-89q0 -72 94 -84q24 -4 35 9q35 37 39 74q1 14 5 42t6 50t0 43q-1 3 -1 11q0 15 1.5 41.5t1.5 48.5t-3 42v102q2 64 1 98q0 11 -2 33.5t-2 30.5v37q0 17 -5.5 30t-17.5 23.5t-20.5 16t-25.5 14.5l-6 3q-4 2 -13 0q-4 -1 -9.5 -3t-10.5 -4.5 t-9 -3.5q-24 -5 -40.5 -31t-21.5 -56q-23 -106 -11 -168z" />
<glyph unicode="&#xd5;" horiz-adv-x="333" d="M40 565q8 73 14 113q7 38 37 87q12 19 38 32q2 1 5 1t5 0.5t3 2.5q7 8 16.5 10t13.5 1t18 -5q35 -10 57 -24q49 -32 51 -100q2 -76 2 -226q2 -162 0 -242q-3 -83 -19 -146q-9 -36 -37.5 -59t-61.5 -20q-48 6 -85 34t-37 74v102q-1 17 -6.5 131.5t-8.5 170.5q0 9 -3 30.5 t-2 32.5zM55 891q16 20 37.5 26t39 3t44.5 -12q61 -18 106 26q1 -1 3.5 -2.5t4.5 -3t4 -3.5q6 -8 4.5 -17.5t-8.5 -11.5t-17.5 -6.5t-18 -7.5t-17 -6t-17.5 -3q-22 0 -26 1l-63 15q-30 7 -49 -12q-11 -11 -15 -9t-12 23zM76 509v-11t1 -11q1 -23 7.5 -127t6.5 -161v-89 q0 -72 94 -84q24 -4 35 9q35 37 39 74q1 14 5 42t6 50t0 43q-1 3 -1 11q0 15 1.5 41.5t1.5 48.5t-3 42v102q2 64 1 98q0 11 -2 33.5t-2 30.5v37q0 17 -5.5 30t-17.5 23.5t-20.5 16t-25.5 14.5l-6 3q-4 2 -13 0q-4 -1 -9.5 -3t-10.5 -4.5t-9 -3.5q-24 -5 -40.5 -31t-21.5 -56 q-23 -106 -11 -168z" />
<glyph unicode="&#xd6;" horiz-adv-x="333" d="M40 565q8 73 14 113q7 38 37 87q12 19 38 32q2 1 5 1t5 0.5t3 2.5q7 8 16.5 10t13.5 1t18 -5q35 -10 57 -24q49 -32 51 -100q2 -76 2 -226q2 -162 0 -242q-3 -83 -19 -146q-9 -36 -37.5 -59t-61.5 -20q-48 6 -85 34t-37 74v102q-1 17 -6.5 131.5t-8.5 170.5q0 9 -3 30.5 t-2 32.5zM76 509v-11t1 -11q1 -23 7.5 -127t6.5 -161v-89q0 -72 94 -84q24 -4 35 9q35 37 39 74q1 14 5 42t6 50t0 43q-1 3 -1 11q0 15 1.5 41.5t1.5 48.5t-3 42v102q2 64 1 98q0 11 -2 33.5t-2 30.5v37q0 17 -5.5 30t-17.5 23.5t-20.5 16t-25.5 14.5l-6 3q-4 2 -13 0 q-4 -1 -9.5 -3t-10.5 -4.5t-9 -3.5q-24 -5 -40.5 -31t-21.5 -56q-23 -106 -11 -168zM82 898v3q3 7 18 13.5t22 4.5q12 -5 12 -22q-1 -2 -1.5 -5.5t-0.5 -5.5q-3 -19 -16.5 -21.5t-25 8.5t-8.5 25zM222 885q-1 15 0 15q3 7 17 14.5t22 7.5q12 -9 12 -25l-1 -7q-1 -8 -4.5 -15 t-6.5 -10l-3 -3q-12 2 -21.5 7.5t-13 10t-1.5 5.5z" />
<glyph unicode="&#xd9;" horiz-adv-x="320" d="M60 743v54q10 5 12 5q10 -1 13.5 -5t4.5 -14v-32q-3 -70 -2.5 -105t3 -105.5t2.5 -105.5q0 -19 2 -97.5t0 -97.5q-2 -33 -2 -101q0 -43 17 -74.5t47 -41.5q42 -16 81 15q21 16 19 49v26t1.5 26l2.5 25t3 25t3 26q2 26 7 100q0 9 -2 27q0 6 -0.5 17.5t-0.5 16.5 q3 118 2 141q-1 79 -5 230q-4 40 18 37q14 -2 14 -32q0 -41 0.5 -125.5t0.5 -126.5q0 -218 -10 -323q-4 -53 -3 -82q1 -48 -26 -79.5t-62 -29.5q-12 2 -25 0q-42 -3 -78 42q-3 4 -7.5 11.5t-5.5 8.5q-18 27 -18 60q4 155 -3 383q0 1 -3 252zM74 904q-7 6 -7.5 15t6.5 16 t15 3q18 -9 123 -54q4 -2 5.5 -2.5t5.5 -2.5t5 -4t3 -5t2 -6.5t-2 -7.5q0 -2 -1.5 -3.5t-4 -3t-3.5 -2.5q-8 2 -11 4q-62 34 -127 49q-1 0 -4 2t-5 2z" />
<glyph unicode="&#xda;" horiz-adv-x="320" d="M60 743v54q10 5 12 5q10 -1 13.5 -5t4.5 -14v-32q-3 -70 -2.5 -105t3 -105.5t2.5 -105.5q0 -19 2 -97.5t0 -97.5q-2 -33 -2 -101q0 -43 17 -74.5t47 -41.5q42 -16 81 15q21 16 19 49v26t1.5 26l2.5 25t3 25t3 26q2 26 7 100q0 9 -2 27q0 6 -0.5 17.5t-0.5 16.5 q3 118 2 141q-1 79 -5 230q-4 40 18 37q14 -2 14 -32q0 -41 0.5 -125.5t0.5 -126.5q0 -218 -10 -323q-4 -53 -3 -82q1 -48 -26 -79.5t-62 -29.5q-12 2 -25 0q-42 -3 -78 42q-3 4 -7.5 11.5t-5.5 8.5q-18 27 -18 60q4 155 -3 383q0 1 -3 252zM144 858q-1 3 -1.5 5.5t0 4.5 l1 4t2.5 3.5t3 2.5t4 2t4 1.5t3.5 2t3.5 1.5q10 4 26 9.5t30 10.5t26 10q9 4 26 11.5t21 9.5q12 6 19 -5q4 -7 3 -15t-7 -12q-1 0 -4.5 -1.5t-5.5 -2.5q-69 -15 -133 -47q-3 -2 -12 -4q-1 1 -2.5 2t-2.5 2l-2.5 2.5t-1.5 2.5z" />
<glyph unicode="&#xdb;" horiz-adv-x="320" d="M60 743v54q10 5 12 5q10 -1 13.5 -5t4.5 -14v-32q-3 -70 -2.5 -105t3 -105.5t2.5 -105.5q0 -19 2 -97.5t0 -97.5q-2 -33 -2 -101q0 -43 17 -74.5t47 -41.5q42 -16 81 15q21 16 19 49v26t1.5 26l2.5 25t3 25t3 26q2 26 7 100q0 9 -2 27q0 6 -0.5 17.5t-0.5 16.5 q3 118 2 141q-1 79 -5 230q-4 40 18 37q14 -2 14 -32q0 -41 0.5 -125.5t0.5 -126.5q0 -218 -10 -323q-4 -53 -3 -82q1 -48 -26 -79.5t-62 -29.5q-12 2 -25 0q-42 -3 -78 42q-3 4 -7.5 11.5t-5.5 8.5q-18 27 -18 60q4 155 -3 383q0 1 -3 252zM74 865q-2 10 6 16q10 8 34 20 l82 39q13 6 24 -2l76 -51q6 -4 7 -11.5t-4 -14.5q-10 -11 -23 -3q-26 17 -53 38q-20 16 -40 4q-10 -6 -39.5 -19.5t-43.5 -25.5q-2 -1 -6.5 -2t-6.5 -2q-1 2 -6.5 6.5t-6.5 7.5z" />
<glyph unicode="&#xdc;" horiz-adv-x="320" d="M60 743v54q10 5 12 5q10 -1 13.5 -5t4.5 -14v-32q-3 -70 -2.5 -105t3 -105.5t2.5 -105.5q0 -19 2 -97.5t0 -97.5q-2 -33 -2 -101q0 -43 17 -74.5t47 -41.5q42 -16 81 15q21 16 19 49v26t1.5 26l2.5 25t3 25t3 26q2 26 7 100q0 9 -2 27q0 6 -0.5 17.5t-0.5 16.5 q3 118 2 141q-1 79 -5 230q-4 40 18 37q14 -2 14 -32q0 -41 0.5 -125.5t0.5 -126.5q0 -218 -10 -323q-4 -53 -3 -82q1 -48 -26 -79.5t-62 -29.5q-12 2 -25 0q-42 -3 -78 42q-3 4 -7.5 11.5t-5.5 8.5q-18 27 -18 60q4 155 -3 383q0 1 -3 252zM90 904v3q3 7 18 13.5t22 4.5 q12 -5 12 -22q-1 -2 -1.5 -5.5t-0.5 -5.5q-3 -19 -16.5 -21.5t-25 8.5t-8.5 25zM230 891q-1 15 0 15q3 7 17 14.5t22 7.5q12 -9 12 -25l-1 -7q-1 -5 -2.5 -10t-3.5 -8t-4 -5.5t-3 -3.5l-1 -1q-12 2 -21.5 7.5t-13 10t-1.5 5.5z" />
<glyph unicode="&#xe0;" d="M40 27l9 47q3 13 7.5 39.5t6.5 39.5l13 79q6 42 17.5 116t20.5 136t15 117q3 21 13 142q2 31 26 45q14 10 22.5 -7.5t8.5 -33.5q-2 -23 7 -83q3 -24 7.5 -68.5t6.5 -58.5q7 -59 26 -203l24 -170q3 -19 11 -57q1 -7 4.5 -22t5.5 -24t3.5 -22t1.5 -25q-1 -7 -6.5 -11.5 t-11.5 -3.5q-7 0 -12 4.5t-6 10.5q-3 24 -7 65q0 2 -1.5 12t-2.5 17q-31 6 -84 -0.5t-74 -5.5l-6 -25q-3 -16 -10 -58q-4 -18 -21 -14t-14 22zM59 904q-7 6 -7.5 15t6.5 16t15 3q18 -9 123 -54q26 -11 19 -28l-9 -9q-8 2 -11 4q-62 34 -127 49q-1 0 -4 2t-5 2zM97 145 q17 -7 22 -8q11 -1 33 1l87 9v17q-6 43 -17.5 119t-20.5 139.5t-15 120.5q0 3 -3.5 44t-5.5 62q0 2 -8 23q-13 -108 -13 -111q-2 -13 -7 -38t-7 -37l-18 -138q-2 -14 -9 -58t-10 -68q-1 -8 -4.5 -25t-4.5 -25t1 -27z" />
<glyph unicode="&#xe1;" d="M40 27l9 47q3 13 7.5 39.5t6.5 39.5l13 79q6 42 17.5 116t20.5 136t15 117q3 21 13 142q2 31 26 45q14 10 22.5 -7.5t8.5 -33.5q-2 -23 7 -83q3 -24 7.5 -68.5t6.5 -58.5q7 -59 26 -203l24 -170q3 -19 11 -57q1 -7 4.5 -22t5.5 -24t3.5 -22t1.5 -25q-1 -7 -6.5 -11.5 t-11.5 -3.5q-7 0 -12 4.5t-6 10.5q-3 24 -7 65q0 2 -1.5 12t-2.5 17q-31 6 -84 -0.5t-74 -5.5l-6 -25q-3 -16 -10 -58q-4 -18 -21 -14t-14 22zM97 145q17 -7 22 -8q11 -1 33 1l87 9v17q-6 43 -17.5 119t-20.5 139.5t-15 120.5q0 3 -3.5 44t-5.5 62q0 2 -8 23 q-13 -108 -13 -111q-2 -13 -7 -38t-7 -37l-18 -138q-2 -14 -9 -58t-10 -68q-1 -8 -4.5 -25t-4.5 -25t1 -27zM127 858q-1 3 -1.5 5.5t0 4.5l1 4t2.5 3.5t3 2.5t4 2t4 1.5t3.5 2t3.5 1.5q6 2 36 13t46 17q9 4 26 11.5t21 9.5q12 6 19 -5q4 -7 3 -15t-7 -12q-1 0 -4.5 -1.5 t-5.5 -2.5q-69 -15 -133 -47q-3 -2 -12 -4q-1 1 -3.5 2.5t-4 3t-1.5 3.5z" />
<glyph unicode="&#xe2;" d="M40 27l9 47q3 13 7.5 39.5t6.5 39.5l13 79q6 42 17.5 116t20.5 136t15 117q3 21 13 142q2 31 26 45q14 10 22.5 -7.5t8.5 -33.5q-2 -23 7 -83q3 -24 7.5 -68.5t6.5 -58.5q7 -59 26 -203l24 -170q3 -19 11 -57q1 -7 4.5 -22t5.5 -24t3.5 -22t1.5 -25q-1 -7 -6.5 -11.5 t-11.5 -3.5q-7 0 -12 4.5t-6 10.5q-3 24 -7 65q0 2 -1.5 12t-2.5 17q-31 6 -84 -0.5t-74 -5.5l-6 -25q-3 -16 -10 -58q-4 -18 -21 -14t-14 22zM46 859q-2 10 6 16q10 8 34 20l82 39q13 6 24 -2l76 -51q14 -9 3 -26q-10 -11 -23 -3q-26 17 -53 38q-20 16 -40 4 q-10 -6 -39.5 -19.5t-43.5 -25.5q-1 -1 -3 -1.5t-5 -1t-5 -1.5q-1 2 -6.5 6.5t-6.5 7.5zM97 145q17 -7 22 -8q11 -1 33 1l87 9v17q-6 43 -17.5 119t-20.5 139.5t-15 120.5q0 3 -3.5 44t-5.5 62q0 2 -8 23q-13 -108 -13 -111q-2 -13 -7 -38t-7 -37l-18 -138q-2 -14 -9 -58 t-10 -68q-1 -8 -4.5 -25t-4.5 -25t1 -27z" />
<glyph unicode="&#xe3;" d="M39 883q23 28 56.5 29.5t64.5 -12.5q61 -18 106 26q1 -1 3.5 -2.5t4.5 -3t4 -3.5q6 -8 4.5 -17.5t-8.5 -11.5q-8 -3 -22 -9t-25.5 -10t-22.5 -4q-22 0 -26 1l-63 15q-30 7 -49 -12q-11 -11 -15 -9t-12 23zM40 27l9 47q3 13 7.5 39.5t6.5 39.5l13 79q6 42 17.5 116 t20.5 136t15 117q3 21 13 142q2 31 26 45q14 10 22.5 -7.5t8.5 -33.5q-2 -23 7 -83q3 -24 7.5 -68.5t6.5 -58.5q7 -59 26 -203l24 -170q3 -19 11 -57q1 -7 4.5 -22t5.5 -24t3.5 -22t1.5 -25q-1 -7 -6.5 -11.5t-11.5 -3.5q-7 0 -12 4.5t-6 10.5q-3 24 -7 65q0 2 -1.5 12 t-2.5 17q-31 6 -84 -0.5t-74 -5.5l-6 -25q-3 -16 -10 -58q-4 -18 -21 -14t-14 22zM97 145q17 -7 22 -8q11 -1 33 1l87 9v17q-6 43 -17.5 119t-20.5 139.5t-15 120.5q0 3 -3.5 44t-5.5 62q0 2 -8 23q-13 -108 -13 -111q-2 -13 -7 -38t-7 -37l-18 -138q-2 -14 -9 -58t-10 -68 q-1 -8 -4.5 -25t-4.5 -25t1 -27z" />
<glyph unicode="&#xe4;" d="M40 27l9 47q3 13 7.5 39.5t6.5 39.5l13 79q6 42 17.5 116t20.5 136t15 117q3 21 13 142q2 31 26 45q14 10 22.5 -7.5t8.5 -33.5q-2 -23 7 -83q3 -24 7.5 -68.5t6.5 -58.5q7 -59 26 -203l24 -170q3 -19 11 -57q1 -7 4.5 -22t5.5 -24t3.5 -22t1.5 -25q-1 -7 -6.5 -11.5 t-11.5 -3.5q-7 0 -12 4.5t-6 10.5q-3 24 -7 65q0 2 -1.5 12t-2.5 17q-31 6 -84 -0.5t-74 -5.5l-6 -25q-3 -16 -10 -58q-4 -18 -21 -14t-14 22zM72 883v3q3 7 18 13.5t22 4.5q12 -4 12 -22q-1 -2 -1.5 -5.5t-0.5 -5.5q-3 -19 -16.5 -21.5t-25 8.5t-8.5 25zM97 145 q17 -7 22 -8q11 -1 33 1l87 9v17q-6 43 -17.5 119t-20.5 139.5t-15 120.5q0 3 -3.5 44t-5.5 62q0 2 -8 23q-13 -108 -13 -111q-2 -13 -7 -38t-7 -37l-18 -138q-2 -14 -9 -58t-10 -68q-1 -8 -4.5 -25t-4.5 -25t1 -27zM212 870q-1 15 0 15q3 7 17 14.5t22 7.5q12 -9 12 -25 l-1 -7q-1 -8 -4.5 -15t-6.5 -10l-3 -3q-29 5 -36 20q-1 3 0 3z" />
<glyph unicode="&#xe5;" d="M40 27l9 47q3 13 7.5 39.5t6.5 39.5l13 79q6 42 17.5 116t20.5 136t15 117q3 21 13 142q2 31 26 45q14 10 22.5 -7.5t8.5 -33.5q-2 -23 7 -83q3 -24 7.5 -68.5t6.5 -58.5q7 -59 26 -203l24 -170q3 -19 11 -57q1 -7 4.5 -22t5.5 -24t3.5 -22t1.5 -25q-1 -7 -6.5 -11.5 t-11.5 -3.5q-7 0 -12 4.5t-6 10.5q-3 24 -7 65q0 2 -1.5 12t-2.5 17q-31 6 -84 -0.5t-74 -5.5l-6 -25q-3 -16 -10 -58q-4 -18 -21 -14t-14 22zM97 145q17 -7 22 -8q11 -1 33 1l87 9v17q-6 43 -17.5 119t-20.5 139.5t-15 120.5q0 3 -3.5 44t-5.5 62q0 2 -8 23 q-13 -108 -13 -111q-2 -13 -7 -38t-7 -37l-18 -138q-2 -14 -9 -58t-10 -68q-1 -8 -4.5 -25t-4.5 -25t1 -27zM128 882v12.5v12t0.5 10t1.5 9t2.5 7t4.5 6.5t7 3.5t10 2.5q22 3 37.5 -11t20.5 -32q0 -7 -3 -18t-8 -21t-9 -14q-9 -9 -23 -5q-3 0 -6.5 0.5t-4.5 0.5 q-27 10 -30 37zM151 888q2 -9 13 -14t17 3l4 6q3 5 2 11t-3 11.5t-7.5 9.5t-11.5 4q-2 0 -4.5 -1.5t-4 -2.5l-1.5 -1q-7 -12 -4 -26z" />
<glyph unicode="&#xe7;" d="M60 172h2q-2 38 -2 56q0 101 1 150q1 32 1.5 75t1.5 84t2 75v16.5v16.5t-0.5 17t-0.5 18q0 6 2 19.5t3 20.5q2 40 44 71q25 18 58 18t51 -22q2 -2 6 -8l6 -9t5.5 -8.5t5.5 -10t3.5 -10t2.5 -11.5q3 -22 3 -64q1 -10 -6.5 -14.5t-16 -1t-9.5 13.5q-1 14 -1 38 q-1 36 -28 60q-29 20 -57 1q-29 -19 -33 -43q-9 -47 -6 -85q1 -9 1 -19v-20t-0.5 -19t-1.5 -20t-1 -19q-2 -72 -4 -109q-2 -23 -2.5 -50.5t0 -49t1.5 -51t1 -49.5q0 -15 -1 -43.5t-1 -42.5q0 -22 3 -40q4 -57 56 -75q58 -16 72 34q3 15 5 46q1 6 6 71q1 10 6.5 15t12.5 3 q9 -1 15.5 -9t2.5 -17q-7 -16 -9 -46.5t-5 -41.5q-1 -6 -2.5 -17t-3.5 -16q-12 -50 -60 -60l1 -10q3 -21 1 -34v-25q0 -2 3 -35q0 -28 -20 -28q-10 0 -14.5 8.5t-2.5 20.5q0 5 0.5 14.5t0.5 15.5v31q1 2 0 9.5t-1 8.5l-2 24q-35 6 -64 36.5t-29 69.5q1 13 -2 76z" />
<glyph unicode="&#xe8;" d="M54 27v5l0.5 1t0.5 2q6 46 4 126q0 9 2 29l2 20v25q2 56 6 110q3 28 -1 63q-4 69 -2 205v23q0 64 -5 124q0 5 -1 8q0 3 -0.5 9t-0.5 8q1 5 5.5 11t8.5 6h1q9 0 21 3q4 0 12 0.5t12 0.5h10q27 -3 56 -3q8 -1 26 -1h5q2 0 7.5 -1t7 -1.5l4.5 -1.5t5 -3t4 -5 q7 -11 0.5 -21.5t-15.5 -10.5h-5q-21 7 -51 7h-24q-14 -2 -29 0q-2 0 -4 0.5l-2 0.5q-9 0 -16 -5v-113q0 -21 -1 -33v-74q0 -34 1 -51v-19q12 0 26 1t28.5 2.5t24.5 2.5q4 0 7 1q2 0 6 0.5t5 0.5q13 0 24 -11v-2q-1 -9 -2.5 -14t-4 -10.5t-6.5 -8t-10 -2.5t-20.5 2.5 t-22.5 2.5q-23 0 -55 -9v-3q5 -47 4.5 -72t-4 -71.5t-3.5 -73.5v-165h13q22 2 37 4q6 0 9 1h35q22 0 35 4l15 3h5q13 0 17 -13.5t-4 -23.5q-5 -13 -17 -13q-2 0 -7.5 2t-8.5 2q-13 0 -16 -3q-2 0 -6 -1.5t-6 -1.5t-2 1q-6 1 -20 1q-10 0 -31.5 -2t-31.5 -2h-5q-15 0 -36 3 q-6 1 -11 8.5t-5 15.5zM67 904q-7 6 -7.5 15t6.5 16t15 3q18 -9 123 -54q4 -2 5.5 -2.5t5.5 -2.5t5 -4t3 -5t2 -6.5t-2 -7.5q0 -2 -1.5 -3.5t-4 -3t-3.5 -2.5q-8 2 -11 4q-62 34 -127 49q-2 0 -5 2t-4 2z" />
<glyph unicode="&#xe9;" d="M54 27v5l0.5 1t0.5 2q6 46 4 126q0 9 2 29l2 20v25q2 56 6 110q3 28 -1 63q-4 69 -2 205v23q0 64 -5 124q0 5 -1 8q0 3 -0.5 9t-0.5 8q1 5 5.5 11t8.5 6h1q9 0 21 3q4 0 12 0.5t12 0.5h10q27 -3 56 -3q8 -1 26 -1h5q2 0 7.5 -1t7 -1.5l4.5 -1.5t5 -3t4 -5 q7 -11 0.5 -21.5t-15.5 -10.5h-5q-21 7 -51 7h-24q-14 -2 -29 0q-2 0 -4 0.5l-2 0.5q-9 0 -16 -5v-113q0 -21 -1 -33v-74q0 -34 1 -51v-19q12 0 26 1t28.5 2.5t24.5 2.5q4 0 7 1q2 0 6 0.5t5 0.5q13 0 24 -11v-2q-1 -9 -2.5 -14t-4 -10.5t-6.5 -8t-10 -2.5t-20.5 2.5 t-22.5 2.5q-23 0 -55 -9v-3q5 -47 4.5 -72t-4 -71.5t-3.5 -73.5v-165h13q22 2 37 4q6 0 9 1h35q22 0 35 4l15 3h5q13 0 17 -13.5t-4 -23.5q-5 -13 -17 -13q-2 0 -7.5 2t-8.5 2q-13 0 -16 -3q-2 0 -6 -1.5t-6 -1.5t-2 1q-6 1 -20 1q-10 0 -31.5 -2t-31.5 -2h-5q-15 0 -36 3 q-6 1 -11 8.5t-5 15.5zM82 858q-1 3 -1.5 5.5t0 4.5l1 4t2.5 3.5t3 2.5t4 2t4 1.5t3.5 2t3.5 1.5q10 4 26 9.5t30 10.5t26 10q7 3 15 6.5t17 7.5t15 7q12 6 19 -5q4 -7 3 -15t-7 -12q-1 0 -4.5 -1.5t-5.5 -2.5q-69 -15 -133 -47q-3 -2 -12 -4q-1 1 -3.5 2.5t-4 3t-1.5 3.5z " />
<glyph unicode="&#xea;" d="M39 875q-2 10 6 16q10 8 34 20l82 39q13 6 24 -2l76 -51q14 -9 3 -26q-10 -11 -23 -3q-26 17 -53 38q-20 16 -40 4q-10 -6 -39.5 -19.5t-43.5 -25.5q-1 -1 -3 -1.5t-5 -1t-5 -1.5q-1 2 -6.5 6.5t-6.5 7.5zM54 27v5l0.5 1t0.5 2q6 46 4 126q0 9 2 29l2 20v25q2 56 6 110 q3 28 -1 63q-4 69 -2 205v23q0 64 -5 124q0 5 -1 8q0 3 -0.5 9t-0.5 8q1 5 5.5 11t8.5 6h1q9 0 21 3q4 0 12 0.5t12 0.5h10q27 -3 56 -3q8 -1 26 -1h5q2 0 7.5 -1t7 -1.5l4.5 -1.5t5 -3t4 -5q7 -11 0.5 -21.5t-15.5 -10.5h-5q-21 7 -51 7h-24q-14 -2 -29 0q-2 0 -4 0.5 l-2 0.5q-9 0 -16 -5v-113q0 -21 -1 -33v-74q0 -34 1 -51v-19q12 0 26 1t28.5 2.5t24.5 2.5q4 0 7 1q2 0 6 0.5t5 0.5q13 0 24 -11v-2q-1 -9 -2.5 -14t-4 -10.5t-6.5 -8t-10 -2.5t-20.5 2.5t-22.5 2.5q-23 0 -55 -9v-3q5 -47 4.5 -72t-4 -71.5t-3.5 -73.5v-165h13q22 2 37 4 q6 0 9 1h35q22 0 35 4l15 3h5q13 0 17 -13.5t-4 -23.5q-5 -13 -17 -13q-2 0 -7.5 2t-8.5 2q-13 0 -16 -3q-2 0 -6 -1.5t-6 -1.5t-2 1q-6 1 -20 1q-10 0 -31.5 -2t-31.5 -2h-5q-15 0 -36 3q-6 1 -11 8.5t-5 15.5z" />
<glyph unicode="&#xeb;" d="M54 27v5l0.5 1t0.5 2q6 46 4 126q0 9 2 29l2 20v25q2 56 6 110q3 28 -1 63q-4 69 -2 205v23q0 64 -5 124q0 5 -1 8q0 3 -0.5 9t-0.5 8q1 5 5.5 11t8.5 6h1q9 0 21 3q4 0 12 0.5t12 0.5h10q27 -3 56 -3q8 -1 26 -1h5q2 0 7.5 -1t7 -1.5l4.5 -1.5t5 -3t4 -5 q7 -11 0.5 -21.5t-15.5 -10.5h-5q-21 7 -51 7h-24q-14 -2 -29 0q-2 0 -4 0.5l-2 0.5q-9 0 -16 -5v-113q0 -21 -1 -33v-74q0 -34 1 -51v-19q12 0 26 1t28.5 2.5t24.5 2.5q4 0 7 1q2 0 6 0.5t5 0.5q13 0 24 -11v-2q-1 -9 -2.5 -14t-4 -10.5t-6.5 -8t-10 -2.5t-20.5 2.5 t-22.5 2.5q-23 0 -55 -9v-3q5 -47 4.5 -72t-4 -71.5t-3.5 -73.5v-165h13q22 2 37 4q6 0 9 1h35q22 0 35 4l15 3h5q13 0 17 -13.5t-4 -23.5q-5 -13 -17 -13q-2 0 -7.5 2t-8.5 2q-13 0 -16 -3q-2 0 -6 -1.5t-6 -1.5t-2 1q-6 1 -20 1q-10 0 -31.5 -2t-31.5 -2h-5q-15 0 -36 3 q-6 1 -11 8.5t-5 15.5zM67 910v3q2 4 9.5 9t16.5 7.5t14 1.5q12 -5 12 -22q-1 -2 -1.5 -5.5t-0.5 -5.5q-3 -19 -16.5 -21.5t-25 8.5t-8.5 25zM207 897q-1 15 0 15q3 7 17 14.5t22 7.5q12 -9 12 -25l-1 -7q-1 -8 -4.5 -15t-6.5 -10l-3 -3q-12 2 -21.5 7.5t-13 10t-1.5 5.5z " />
<glyph unicode="&#xec;" horiz-adv-x="187" d="M-31 904q-7 6 -7.5 15t6.5 16t15 3q18 -9 123 -54q26 -11 19 -28l-9 -9q-8 2 -11 4q-62 34 -127 49q-1 0 -4 2t-5 2zM96 145q-1 42 6 128q9 118 4 190q-2 25 -2 90.5t-1 85.5q-1 13 -1 43.5t-1 55.5t-5 45q-1 3 1 10q12 13 23 5q12 -10 12 -51l3 -155q3 -180 2 -231 q-1 -25 -4 -75.5t-4 -67.5v-19.5v-27v-29.5q0 -10 0.5 -25t1 -28.5t1.5 -30t1 -24.5q0 -13 -1 -19q-1 -7 -4 -10.5t-9.5 -2.5t-9.5 2t-11 4q0 63 -2 137z" />
<glyph unicode="&#xed;" horiz-adv-x="185" d="M82 145q-1 42 6 128q9 118 4 190q-1 20 -1.5 53.5t-0.5 69t-1 53.5q-1 13 -1 43.5t-1 55.5t-5 45q-1 3 1 10q12 13 23 5q12 -10 12 -51l3 -155q3 -181 2 -231q-1 -25 -4 -75.5t-4 -67.5v-19.5v-27v-29.5q0 -12 0.5 -32t2 -43.5t1.5 -32.5q0 -13 -1 -19q-1 -7 -4 -10.5 t-9.5 -2.5t-9.5 2t-11 4q0 63 -2 137zM84 858q-5 7 -0.5 13t7.5 8t10 5q2 1 3 1q6 2 36 13t46 17q9 4 26 11.5t21 9.5q12 6 19 -5q4 -7 3 -15t-7 -12q-1 0 -4.5 -1.5t-5.5 -2.5q-69 -15 -133 -47q-3 -2 -12 -4q-1 1 -3.5 2.5t-4 3t-1.5 3.5z" />
<glyph unicode="&#xee;" horiz-adv-x="191" d="M-28 832q-2 10 6 16q10 8 34 20l82 39q13 6 24 -2l76 -51q14 -9 3 -26q-10 -11 -23 -3q-26 17 -53 38q-20 16 -40 4q-10 -6 -39.5 -19.5t-43.5 -25.5q-1 -1 -3 -1.5t-5 -1t-5 -1.5q-1 2 -6.5 6.5t-6.5 7.5zM80 145q-1 42 6 128q9 118 4 190q-1 20 -1.5 53.5t-0.5 69 t-1 53.5q-1 13 -1 43.5t-1 55.5t-5 45q-1 3 1 10q12 13 23 5q12 -10 12 -51l3 -155q3 -181 2 -231q-1 -25 -4 -75.5t-4 -67.5v-19.5v-27v-29.5q0 -12 0.5 -32t2 -43.5t1.5 -32.5q0 -13 -1 -19q-1 -7 -4 -10.5t-9.5 -2.5t-9.5 2t-11 4q0 63 -2 137z" />
<glyph unicode="&#xef;" horiz-adv-x="193" d="M2 891v3q3 7 18 13.5t22 4.5q12 -4 12 -22q-1 -2 -1.5 -5.5t-0.5 -5.5q-3 -19 -16.5 -21.5t-25 8.5t-8.5 25zM77 145q-1 42 6 128q9 118 4 190q-1 20 -1.5 53.5t-0.5 69t-1 53.5q-1 13 -1 43.5t-1 55.5t-5 45q-1 3 1 10q12 13 23 5q12 -10 12 -51l3 -155q3 -181 2 -231 q-1 -25 -4 -75.5t-4 -67.5v-19.5v-27v-29.5q0 -12 0.5 -32t2 -43.5t1.5 -32.5q0 -13 -1 -19q-1 -7 -4 -10.5t-9.5 -2.5t-9.5 2t-11 4q0 63 -2 137zM142 878q-1 15 0 15q3 7 17 14.5t22 7.5q12 -9 12 -25l-1 -7q-1 -8 -4.5 -15t-6.5 -10l-3 -3q-29 5 -36 20q-1 3 0 3z" />
<glyph unicode="&#xf2;" horiz-adv-x="333" d="M40 565q8 73 14 113q7 38 37 87q12 19 38 32q2 1 5 1t5 0.5t3 2.5q7 8 16.5 10t13.5 1t18 -5q35 -10 57 -24q49 -32 51 -100q2 -76 2 -226q2 -162 0 -242q-3 -83 -19 -146q-9 -36 -37.5 -59t-61.5 -20q-48 6 -85 34t-37 74v102q-1 17 -6.5 131.5t-8.5 170.5q0 9 -3 30.5 t-2 32.5zM67 904q-7 6 -7.5 15t6.5 16t15 3q18 -9 123 -54q4 -2 5.5 -2.5t5.5 -2.5t5 -4t3 -5t2 -6.5t-2 -7.5q0 -2 -1.5 -3.5t-4 -3t-3.5 -2.5q-8 2 -11 4q-62 34 -127 49l-5 2.5t-4 1.5zM76 509v-11t1 -11q1 -23 7.5 -127t6.5 -161v-89q0 -72 94 -84q24 -4 35 9 q35 37 39 74q1 14 5 42t6 50t0 43q-1 3 -1 11q0 15 1.5 41.5t1.5 48.5t-3 42v102q2 64 1 98q0 11 -2 33.5t-2 30.5v37q0 17 -5.5 30t-17.5 23.5t-20.5 16t-25.5 14.5l-6 3q-4 2 -13 0q-4 -1 -9.5 -3t-10.5 -4.5t-9 -3.5q-24 -5 -40.5 -31t-21.5 -56q-23 -106 -11 -168z" />
<glyph unicode="&#xf3;" horiz-adv-x="333" d="M40 565q8 73 14 113q7 38 37 87q12 19 38 32q2 1 5 1t5 0.5t3 2.5q7 8 16.5 10t13.5 1t18 -5q35 -10 57 -24q49 -32 51 -100q2 -76 2 -226q2 -162 0 -242q-3 -83 -19 -146q-9 -36 -37.5 -59t-61.5 -20q-48 6 -85 34t-37 74v102q-1 17 -6.5 131.5t-8.5 170.5q0 9 -3 30.5 t-2 32.5zM76 509v-11t1 -11q1 -23 7.5 -127t6.5 -161v-89q0 -72 94 -84q24 -4 35 9q35 37 39 74q1 14 5 42t6 50t0 43q-1 3 -1 11q0 15 1.5 41.5t1.5 48.5t-3 42v102q2 64 1 98q0 11 -2 33.5t-2 30.5v37q0 17 -5.5 30t-17.5 23.5t-20.5 16t-25.5 14.5l-6 3q-4 2 -13 0 q-4 -1 -9.5 -3t-10.5 -4.5t-9 -3.5q-24 -5 -40.5 -31t-21.5 -56q-23 -106 -11 -168zM122 858q-1 3 -1.5 6t0 5t2.5 4t2.5 3.5t4 3t4 2t4.5 2.5l4 1q6 2 36 13t46 17q9 4 26 11.5t21 9.5q12 6 19 -5q10 -18 -4 -27q-1 0 -4.5 -1.5t-5.5 -2.5q-69 -15 -133 -47q-3 -2 -12 -4 q-1 1 -3.5 2.5t-4 3t-1.5 3.5z" />
<glyph unicode="&#xf4;" horiz-adv-x="333" d="M40 565q8 73 14 113q7 38 37 87q12 19 38 32q2 1 5 1t5 0.5t3 2.5q7 8 16.5 10t13.5 1t18 -5q35 -10 57 -24q49 -32 51 -100q2 -76 2 -226q2 -162 0 -242q-3 -83 -19 -146q-9 -36 -37.5 -59t-61.5 -20q-48 6 -85 34t-37 74v102q-1 17 -6.5 131.5t-8.5 170.5q0 9 -3 30.5 t-2 32.5zM69 857q-2 10 6 16q10 8 34 20l82 39q13 6 24 -2l76 -51q6 -4 7 -11.5t-4 -14.5q-10 -11 -23 -3q-26 17 -53 38q-20 16 -40 4q-10 -7 -27 -14t-31.5 -14.5t-24.5 -16.5q-1 -1 -2.5 -1.5t-3 -0.5t-3.5 -0.5t-4 -1.5q-1 2 -6.5 6.5t-6.5 7.5zM76 509v-11t1 -11 q1 -23 7.5 -127t6.5 -161v-89q0 -72 94 -84q24 -4 35 9q35 37 39 74q1 14 5 42t6 50t0 43q-1 3 -1 11q0 15 1.5 41.5t1.5 48.5t-3 42v102q2 64 1 98q0 11 -2 33.5t-2 30.5v37q0 17 -5.5 30t-17.5 23.5t-20.5 16t-25.5 14.5l-6 3q-4 2 -13 0q-4 -1 -9.5 -3t-10.5 -4.5 t-9 -3.5q-24 -5 -40.5 -31t-21.5 -56q-23 -106 -11 -168z" />
<glyph unicode="&#xf5;" horiz-adv-x="333" d="M40 565q8 73 14 113q7 38 37 87q12 19 38 32q2 1 5 1t5 0.5t3 2.5q7 8 16.5 10t13.5 1t18 -5q35 -10 57 -24q49 -32 51 -100q2 -76 2 -226q2 -162 0 -242q-3 -83 -19 -146q-9 -36 -37.5 -59t-61.5 -20q-48 6 -85 34t-37 74v102q-1 17 -6.5 131.5t-8.5 170.5q0 9 -3 30.5 t-2 32.5zM55 891q16 20 37.5 26t39 3t44.5 -12q61 -18 106 26q1 -1 3.5 -2.5t4.5 -3t4 -3.5q6 -8 4.5 -17.5t-8.5 -11.5t-17.5 -6.5t-18 -7.5t-17 -6t-17.5 -3q-22 0 -26 1l-63 15q-30 7 -49 -12q-11 -11 -15 -9t-12 23zM76 509v-11t1 -11q1 -23 7.5 -127t6.5 -161v-89 q0 -72 94 -84q24 -4 35 9q35 37 39 74q1 14 5 42t6 50t0 43q-1 3 -1 11q0 15 1.5 41.5t1.5 48.5t-3 42v102q2 64 1 98q0 11 -2 33.5t-2 30.5v37q0 17 -5.5 30t-17.5 23.5t-20.5 16t-25.5 14.5l-6 3q-4 2 -13 0q-4 -1 -9.5 -3t-10.5 -4.5t-9 -3.5q-24 -5 -40.5 -31t-21.5 -56 q-23 -106 -11 -168z" />
<glyph unicode="&#xf6;" horiz-adv-x="333" d="M40 565q8 73 14 113q7 38 37 87q12 19 38 32q2 1 5 1t5 0.5t3 2.5q7 8 16.5 10t13.5 1t18 -5q35 -10 57 -24q49 -32 51 -100q2 -76 2 -226q2 -162 0 -242q-3 -83 -19 -146q-9 -36 -37.5 -59t-61.5 -20q-48 6 -85 34t-37 74v102q-1 17 -6.5 131.5t-8.5 170.5q0 9 -3 30.5 t-2 32.5zM76 509v-11t1 -11q1 -23 7.5 -127t6.5 -161v-89q0 -72 94 -84q24 -4 35 9q35 37 39 74q1 14 5 42t6 50t0 43q-1 3 -1 11q0 15 1.5 41.5t1.5 48.5t-3 42v102q2 64 1 98q0 11 -2 33.5t-2 30.5v37q0 17 -5.5 30t-17.5 23.5t-20.5 16t-25.5 14.5l-6 3q-4 2 -13 0 q-4 -1 -9.5 -3t-10.5 -4.5t-9 -3.5q-24 -5 -40.5 -31t-21.5 -56q-23 -106 -11 -168zM82 898v3q3 7 18 13.5t22 4.5q12 -5 12 -22q-1 -2 -1.5 -5.5t-0.5 -5.5q-3 -19 -16.5 -21.5t-25 8.5t-8.5 25zM222 885q-1 15 0 15q3 7 17 14.5t22 7.5q12 -9 12 -25l-1 -7q-1 -8 -4.5 -15 t-6.5 -10l-3 -3q-12 2 -21.5 7.5t-13 10t-1.5 5.5z" />
<glyph unicode="&#xf7;" horiz-adv-x="343" d="M40 346q0 4 1 6.5t3 4.5t4 3t6 2t6.5 1.5t7 1t6.5 0.5q25 1 74.5 2.5t74.5 2.5q6 0 12.5 0.5t14.5 1.5t12 1q10 1 19 -5t12 -16q1 -2 0 -6t-1 -7q-15 -3 -16 -3q-19 3 -41.5 4t-36 0.5t-42 -2.5t-37.5 -3q-11 0 -30 -4t-25 -5q-10 -2 -17.5 4.5t-6.5 15.5zM147 245 q2 11 6.5 20.5t8.5 13t5 1.5l7.5 1.5t4 1t2 0l0.5 -0.5q7 -2 15 -15t8 -21q-7 -12 -22 -13h-6q-8 1 -15.5 4t-10.5 5zM160 419q-18 1 -21.5 14t6 24.5t23.5 10.5q7 0 15.5 -14.5t7.5 -21.5q-5 -13 -21 -13h-10z" />
<glyph unicode="&#xf9;" horiz-adv-x="320" d="M60 743v54q10 5 12 5q10 -1 13.5 -5t4.5 -14v-32q-3 -70 -2.5 -105t3 -105.5t2.5 -105.5q0 -19 2 -97.5t0 -97.5q-2 -33 -2 -101q0 -43 17 -74.5t47 -41.5q42 -16 81 15q21 16 19 49v26t1.5 26l2.5 25t3 25t3 26q2 26 7 100q0 9 -2 27q0 6 -0.5 17.5t-0.5 16.5 q3 118 2 141q-1 79 -5 230q-4 40 18 37q14 -2 14 -32q0 -41 0.5 -125.5t0.5 -126.5q0 -218 -10 -323q-4 -53 -3 -82q1 -48 -26 -79.5t-62 -29.5q-12 2 -25 0q-42 -3 -78 42q-3 4 -7.5 11.5t-5.5 8.5q-18 27 -18 60q4 155 -3 383q0 1 -3 252zM74 904q-7 6 -7.5 15t6.5 16 t15 3q18 -9 123 -54q4 -2 5.5 -2.5t5.5 -2.5t5 -4t3 -5t2 -6.5t-2 -7.5q0 -2 -1.5 -3.5t-4 -3t-3.5 -2.5q-8 2 -11 4q-62 34 -127 49q-1 0 -4 2t-5 2z" />
<glyph unicode="&#xfa;" horiz-adv-x="320" d="M60 743v54q10 5 12 5q10 -1 13.5 -5t4.5 -14v-32q-3 -70 -2.5 -105t3 -105.5t2.5 -105.5q0 -19 2 -97.5t0 -97.5q-2 -33 -2 -101q0 -43 17 -74.5t47 -41.5q42 -16 81 15q21 16 19 49v26t1.5 26l2.5 25t3 25t3 26q2 26 7 100q0 9 -2 27q0 6 -0.5 17.5t-0.5 16.5 q3 118 2 141q-1 79 -5 230q-4 40 18 37q14 -2 14 -32q0 -41 0.5 -125.5t0.5 -126.5q0 -218 -10 -323q-4 -53 -3 -82q1 -48 -26 -79.5t-62 -29.5q-12 2 -25 0q-42 -3 -78 42q-3 4 -7.5 11.5t-5.5 8.5q-18 27 -18 60q4 155 -3 383q0 1 -3 252zM144 858q-1 3 -1.5 5.5t0 4.5 l1 4t2.5 3.5t3 2.5t4 2t4 1.5t3.5 2t3.5 1.5q10 4 26 9.5t30 10.5t26 10q9 4 26 11.5t21 9.5q12 6 19 -5q4 -7 3 -15t-7 -12q-1 0 -4.5 -1.5t-5.5 -2.5q-69 -15 -133 -47q-3 -2 -12 -4q-1 1 -2.5 2t-2.5 2l-2.5 2.5t-1.5 2.5z" />
<glyph unicode="&#xfb;" horiz-adv-x="320" d="M60 743v54q10 5 12 5q10 -1 13.5 -5t4.5 -14v-32q-3 -70 -2.5 -105t3 -105.5t2.5 -105.5q0 -19 2 -97.5t0 -97.5q-2 -33 -2 -101q0 -43 17 -74.5t47 -41.5q42 -16 81 15q21 16 19 49v26t1.5 26l2.5 25t3 25t3 26q2 26 7 100q0 9 -2 27q0 6 -0.5 17.5t-0.5 16.5 q3 118 2 141q-1 79 -5 230q-4 40 18 37q14 -2 14 -32q0 -41 0.5 -125.5t0.5 -126.5q0 -218 -10 -323q-4 -53 -3 -82q1 -48 -26 -79.5t-62 -29.5q-12 2 -25 0q-42 -3 -78 42q-3 4 -7.5 11.5t-5.5 8.5q-18 27 -18 60q4 155 -3 383q0 1 -3 252zM74 865q-2 10 6 16q10 8 34 20 l82 39q13 6 24 -2l76 -51q6 -4 7 -11.5t-4 -14.5q-10 -11 -23 -3q-26 17 -53 38q-20 16 -40 4q-10 -6 -39.5 -19.5t-43.5 -25.5q-2 -1 -6.5 -2t-6.5 -2q-1 2 -6.5 6.5t-6.5 7.5z" />
<glyph unicode="&#xfc;" horiz-adv-x="320" d="M60 743v54q10 5 12 5q10 -1 13.5 -5t4.5 -14v-32q-3 -70 -2.5 -105t3 -105.5t2.5 -105.5q0 -19 2 -97.5t0 -97.5q-2 -33 -2 -101q0 -43 17 -74.5t47 -41.5q42 -16 81 15q21 16 19 49v26t1.5 26l2.5 25t3 25t3 26q2 26 7 100q0 9 -2 27q0 6 -0.5 17.5t-0.5 16.5 q3 118 2 141q-1 79 -5 230q-4 40 18 37q14 -2 14 -32q0 -41 0.5 -125.5t0.5 -126.5q0 -218 -10 -323q-4 -53 -3 -82q1 -48 -26 -79.5t-62 -29.5q-12 2 -25 0q-42 -3 -78 42q-3 4 -7.5 11.5t-5.5 8.5q-18 27 -18 60q4 155 -3 383q0 1 -3 252zM90 904v3q3 7 18 13.5t22 4.5 q12 -5 12 -22q-1 -2 -1.5 -5.5t-0.5 -5.5q-3 -19 -16.5 -21.5t-25 8.5t-8.5 25zM230 891q-1 15 0 15q3 7 17 14.5t22 7.5q12 -9 12 -25l-1 -7q-1 -5 -2.5 -10t-3.5 -8t-4 -5.5t-3 -3.5l-1 -1q-12 2 -21.5 7.5t-13 10t-1.5 5.5z" />
<glyph unicode="&#x2c6;" horiz-adv-x="600" d="M69 857q-2 10 6 16q10 8 34 20l82 39q13 6 24 -2l76 -51q14 -9 3 -26q-10 -11 -23 -3q-26 17 -53 38q-20 16 -40 4q-10 -6 -39.5 -19.5t-43.5 -25.5q-1 -1 -3 -1.5t-5 -1t-5 -1.5q-1 2 -6.5 6.5t-6.5 7.5z" />
<glyph unicode="&#x2dc;" horiz-adv-x="600" d="M182 753q23 28 56.5 29.5t64.5 -12.5q61 -18 106 26l12 -9q6 -8 4.5 -17.5t-8.5 -11.5q-8 -3 -22 -9t-25.5 -10t-22.5 -4q-22 0 -26 1l-63 15q-30 7 -49 -12q-11 -11 -15 -9t-12 23z" />
<glyph unicode="&#x2000;" horiz-adv-x="476" />
<glyph unicode="&#x2001;" horiz-adv-x="952" />
<glyph unicode="&#x2002;" horiz-adv-x="476" />
<glyph unicode="&#x2003;" horiz-adv-x="952" />
<glyph unicode="&#x2004;" horiz-adv-x="317" />
<glyph unicode="&#x2005;" horiz-adv-x="238" />
<glyph unicode="&#x2006;" horiz-adv-x="158" />
<glyph unicode="&#x2007;" horiz-adv-x="158" />
<glyph unicode="&#x2008;" horiz-adv-x="119" />
<glyph unicode="&#x2009;" horiz-adv-x="190" />
<glyph unicode="&#x200a;" horiz-adv-x="52" />
<glyph unicode="&#x2010;" horiz-adv-x="203" d="M40 341q1 3 5 14q42 2 55 2q38 2 58 2q17 0 27.5 -6t6.5 -20q-2 -6 -7 -9t-10 -1q-37 12 -105 0q-14 -3 -23 2t-7 16z" />
<glyph unicode="&#x2011;" horiz-adv-x="203" d="M40 341q1 3 5 14q42 2 55 2q38 2 58 2q17 0 27.5 -6t6.5 -20q-2 -6 -7 -9t-10 -1q-37 12 -105 0q-14 -3 -23 2t-7 16z" />
<glyph unicode="&#x2012;" horiz-adv-x="203" d="M40 341q1 3 5 14q42 2 55 2q38 2 58 2q17 0 27.5 -6t6.5 -20q-2 -6 -7 -9t-10 -1q-37 12 -105 0q-14 -3 -23 2t-7 16z" />
<glyph unicode="&#x2013;" horiz-adv-x="343" d="M40 346q0 4 1 6.5t3 4.5t4 3t6 2t6.5 1.5t7 1t6.5 0.5q25 1 74.5 2.5t74.5 2.5q6 0 12.5 0.5t14.5 1.5t12 1q10 1 19 -5t12 -16q1 -2 0 -6t-1 -7q-15 -3 -16 -3q-19 3 -41.5 4t-36 0.5t-42 -2.5t-37.5 -3q-11 0 -30 -4t-25 -5q-10 -2 -17.5 4.5t-6.5 15.5z" />
<glyph unicode="&#x2014;" horiz-adv-x="497" d="M45 362q24 0 68 2q17 1 69 -6q64 -9 110 -4q1 0 85 3q8 1 24.5 1t29.5 1t25 5h6q8 -11 3 -24q-2 -5 -5.5 -7t-6.5 -3t-9.5 -1.5t-9.5 -0.5l-86 -3q-98 -3 -117 -2q-16 1 -44 4t-38 4h-38q-8 -1 -25 -2t-26 -2q-7 0 -11 1q-17 2 -4 34z" />
<glyph unicode="&#x2018;" horiz-adv-x="177" d="M55 739q22 20 44 38l48 44q4 4 7.5 5t7 -1t5.5 -3.5t5.5 -6.5t4.5 -6q-9 -16 -10 -16q-28 -16 -86 -72q-5 -5 -9 -6q-9 -2 -17.5 7t0.5 17z" />
<glyph unicode="&#x2019;" horiz-adv-x="155" d="M16 823q1 1 13 8q7 -6 21.5 -17t21.5 -17l46 -36q28 -28 8 -42q-4 -3 -10 -2t-9 5q-21 33 -80 68q-6 4 -10.5 8.5t-6.5 12t6 12.5z" />
<glyph unicode="&#x201c;" horiz-adv-x="150" d="M18 795q22 20 44 38l48 44q3 3 6.5 4.5t6 1t5 -3l4 -4t4.5 -5.5t4 -5q-9 -16 -10 -16q-28 -16 -86 -72q-4 -5 -9 -6q-9 -2 -17.5 7t0.5 17zM75 739q22 20 44 38l48 44q4 4 7.5 5t7 -1t5.5 -3.5t5.5 -6.5t4.5 -6q-1 -2 -3 -6.5t-3.5 -6.5t-3.5 -3q-8 -5 -16.5 -11t-14 -10 t-15.5 -13t-12.5 -11.5t-14.5 -14t-13 -12.5q-4 -4 -9 -6q-9 -2 -17.5 7t0.5 17z" />
<glyph unicode="&#x201d;" horiz-adv-x="150" d="M-14 823q1 1 13 8q7 -6 21.5 -17t21.5 -17l46 -36q28 -28 8 -42q-4 -3 -10 -2t-9 5q-21 33 -80 68q-6 4 -10.5 8.5t-6.5 12t6 12.5zM40 883q1 1 13 8q6 -5 14.5 -11.5t15.5 -12t13 -10.5l46 -36q28 -28 8 -42q-4 -3 -10 -2t-9 5q-21 33 -80 68q-6 4 -10.5 8.5t-6.5 12 t6 12.5z" />
<glyph unicode="&#x2026;" horiz-adv-x="300" d="M40 29q0 9 8 16t19 7q19 1 24.5 -12t-2 -26.5t-20.5 -13.5q-9 0 -18.5 10t-10.5 19zM127 29q0 9 8 16t19 7q19 1 24.5 -12t-2 -26.5t-20.5 -13.5q-9 0 -18.5 10t-10.5 19zM211 29q0 9 8 16t19 7q19 1 24.5 -12t-2 -26.5t-20.5 -13.5q-9 0 -18.5 10t-10.5 19z" />
<glyph unicode="&#x202f;" horiz-adv-x="190" />
<glyph unicode="&#x205f;" horiz-adv-x="238" />
<glyph unicode="&#x25fc;" horiz-adv-x="810" d="M0 0v810h810v-810h-810z" />
</font>
</defs>
</svg>
